<?xml version="1.0" standalone="no"?>
<!DOCTYPE svg PUBLIC "-//W3C//DTD SVG 1.1//EN" "http://www.w3.org/Graphics/SVG/1.1/DTD/svg11.dtd" >
<svg xmlns="http://www.w3.org/2000/svg" xmlns:xlink="http://www.w3.org/1999/xlink" version="1.1">
<metadata>
Created by FontForge 20161013 at Sun Jul 23 14:11:45 2017
 By ,,,
Copyright (c)2016. Cerebri Sans is a trademark of Alfredo Marco Pradil. All rights reserved.
</metadata>
<defs>
<font id="CerebriSans-Bold" horiz-adv-x="0" >
  <font-face 
    font-family="Cerebri Sans"
    font-weight="700"
    font-stretch="normal"
    units-per-em="2048"
    panose-1="0 0 8 0 0 0 0 0 0 0"
    ascent="1536"
    descent="-512"
    x-height="1028"
    cap-height="1445"
    bbox="-1662 -574 2840 2369"
    underline-thickness="102"
    underline-position="-388"
    unicode-range="U+0020-FB02"
  />
<missing-glyph horiz-adv-x="1248" 
d="M160 0v1536h928v-1536h-928zM379 219h490v1098h-490v-1098z" />
    <glyph glyph-name="fi" unicode="fi" horiz-adv-x="1331" 
d="M221 1139q0 73 13 131t35 99.5t58.5 71.5t76 48t94.5 29t108.5 14.5t122.5 3.5v-230h-6q-28 0 -42.5 -0.5t-41 -3.5t-41.5 -9t-34.5 -18.5t-30 -30t-18 -44.5t-7.5 -62v-110h221v-221h-221v-807h-287v807h-201v221h201v111zM1039 1182q-69 0 -118 48.5t-49 117.5
q0 68 49.5 116.5t117.5 48.5q67 0 116 -48.5t49 -116.5q0 -69 -49 -117.5t-116 -48.5zM892 0v1028h290v-1028h-290z" />
    <glyph glyph-name="fl" unicode="fl" horiz-adv-x="1332" 
d="M221 1139q0 73 13 131t35 99.5t58.5 71.5t76 48t94.5 29t108.5 14.5t122.5 3.5v-230h-6q-28 0 -42.5 -0.5t-41 -3.5t-41.5 -9t-34.5 -18.5t-30 -30t-18 -44.5t-7.5 -62v-110h221v-221h-221v-807h-287v807h-201v221h201v111zM892 1536h291v-1536h-291v1536z" />
    <glyph glyph-name="f_f" unicode="ff" horiz-adv-x="1439" 
d="M221 0v807h-201v221h201v111q0 73 13 131t35 99.5t58.5 71.5t76 48t94.5 29t108.5 14.5t122.5 3.5v-230h-6q-28 0 -42.5 -0.5t-41 -3.5t-41.5 -9t-34.5 -18.5t-30 -30t-18 -44.5t-7.5 -62v-110h408v111q0 73 13 131t35 99.5t58.5 71.5t76 48t94.5 29t108.5 14.5
t122.5 3.5v-230h-6q-28 0 -42.5 -0.5t-41 -3.5t-41.5 -9t-34 -18.5t-29.5 -30t-18 -44.5t-7.5 -62v-110h220v-221h-220v-807h-288v807h-408v-807h-287z" />
    <glyph glyph-name=".notdef" horiz-adv-x="1248" 
d="M160 0v1536h928v-1536h-928zM379 219h490v1098h-490v-1098z" />
    <glyph glyph-name=".null" 
 />
    <glyph glyph-name="nonmarkingreturn" horiz-adv-x="682" 
 />
    <glyph glyph-name="space" unicode=" " horiz-adv-x="532" 
 />
    <glyph glyph-name="exclam" unicode="!" horiz-adv-x="669" 
d="M217 461l-29 984h290l-29 -984h-232zM333 -20q-67 0 -115.5 48t-48.5 116q0 69 48 117.5t116 48.5q69 0 117.5 -48.5t48.5 -117.5q0 -68 -48.5 -116t-117.5 -48z" />
    <glyph glyph-name="quotedbl" unicode="&#x22;" horiz-adv-x="1071" 
d="M226 793l-38 652h274l-29 -652h-207zM638 793l-29 652h272l-37 -652h-206z" />
    <glyph glyph-name="numbersign" unicode="#" horiz-adv-x="1567" 
d="M312 0l46 327h-280l27 202h281l57 384h-284l35 200h275l49 334h200l-45 -334h333l47 334h202l-47 -334h282l-32 -200h-278l-54 -384h279l-28 -202h-278l-50 -327h-200l47 327h-338l-45 -327h-201zM589 529h334l55 384h-337z" />
    <glyph glyph-name="dollar" unicode="$" horiz-adv-x="1371" 
d="M1246 415q0 -105 -39 -187t-108 -133.5t-156 -79.5t-189 -34v-141h-111v141q-213 13 -358 122.5t-175 294.5l310 72q12 -101 71.5 -162t151.5 -78v389q-8 3 -23 7.5t-22 6.5q-55 17 -91.5 29.5t-87 33.5t-83.5 42t-69.5 52t-57.5 66.5t-35 83t-14 102.5
q0 191 134.5 302.5t348.5 119.5v129h111v-133q118 -11 214 -51.5t170 -123.5t99 -201l-289 -72q-32 172 -194 201v-355q2 -1 7.5 -2.5t8.5 -2.5q58 -17 95.5 -29.5t92.5 -35.5t91 -44.5t77 -55.5t64.5 -72t39.5 -89.5t16 -111.5zM463 1049q0 -56 46 -91.5t134 -65.5v325
q-81 -10 -130.5 -51.5t-49.5 -116.5zM754 226q84 9 133.5 52t48.5 121q-1 66 -47.5 108t-134.5 75v-356z" />
    <glyph glyph-name="percent" unicode="%" horiz-adv-x="1705" 
d="M423 791q-140 0 -238 98.5t-98 239.5q0 139 98.5 238t237.5 99q140 0 238.5 -99t98.5 -238q0 -140 -98 -239t-239 -99zM350 -1l756 1447h241l-757 -1447h-240zM423 983q63 0 104.5 42t41.5 104q0 60 -43 102.5t-103 42.5t-103 -42t-43 -103q0 -62 42.5 -104t103.5 -42z
M1284 -17q-142 0 -240 98.5t-98 238.5t99 238.5t239 98.5q139 0 237 -98.5t98 -238.5q0 -139 -98 -238t-237 -99zM1284 176q60 0 103 42t43 102t-43.5 103t-102.5 43q-62 0 -104.5 -42t-42.5 -104q0 -60 42.5 -102t104.5 -42z" />
    <glyph glyph-name="ampersand" unicode="&#x26;" horiz-adv-x="1582" 
d="M1484 0h-330l-95 119q-209 -139 -458 -139q-225 0 -367 112.5t-142 312.5q0 62 16.5 114.5t43.5 94.5t77 86.5t101.5 80.5t133.5 87l-12 15q-71 90 -100.5 157.5t-29.5 130.5q0 139 112 219q103 76 274 76q180 0 287 -83t107 -217q0 -95 -64.5 -177t-213.5 -171l261 -323
q114 174 114 357h260q0 -152 -55 -297.5t-154 -264.5zM626 1248q-33 -28 -33 -81q0 -35 17 -68.5t59 -87.5l23 -29q155 93 155 189q0 49 -37 78.5t-93 29.5q-57 0 -91 -31zM613 216q160 0 295 93l-304 382q-46 -28 -69.5 -43t-58 -39.5t-51.5 -43t-35 -43.5t-25 -52t-7 -58
q0 -95 69 -145.5t186 -50.5z" />
    <glyph glyph-name="quotesingle" unicode="'" horiz-adv-x="655" 
d="M222 793l-29 652h272l-37 -652h-206z" />
    <glyph glyph-name="parenleft" unicode="(" horiz-adv-x="700" 
d="M516 -480q-201 146 -316.5 445t-115.5 680q0 380 115.5 679.5t316.5 445.5l164 -195q-151 -104 -242.5 -355.5t-91.5 -574.5q0 -324 91.5 -574.5t242.5 -354.5z" />
    <glyph glyph-name="parenright" unicode=")" horiz-adv-x="700" 
d="M184 -480l-164 196q151 104 242.5 354.5t91.5 574.5q0 323 -91.5 574.5t-242.5 355.5l164 195q201 -146 316.5 -445.5t115.5 -679.5q0 -381 -115.5 -680t-316.5 -445z" />
    <glyph glyph-name="asterisk" unicode="*" horiz-adv-x="1003" 
d="M373 808l-136 82l160 197q23 28 12 47t-46 13l-254 -39v158l254 -38q35 -6 46 13t-12 47l-160 199l136 79l94 -239q12 -35 35 -35t35 35l93 239l139 -79l-163 -199q-23 -28 -12 -47t47 -13l253 38v-158l-253 39q-36 6 -47 -13t13 -47l162 -197l-139 -82l-93 238
q-12 35 -35 35t-35 -35z" />
    <glyph glyph-name="plus" unicode="+" horiz-adv-x="1195" 
d="M489 205v386h-386v219h386v385h218v-385h385v-219h-385v-386h-218z" />
    <glyph glyph-name="comma" unicode="," horiz-adv-x="672" 
d="M351 -368h-206l125 654h296z" />
    <glyph glyph-name="hyphen" unicode="-" horiz-adv-x="1009" 
d="M146 412v241h717v-241h-717z" />
    <glyph glyph-name="period" unicode="." horiz-adv-x="660" 
d="M329 -20q-67 0 -115.5 48.5t-48.5 115.5q0 68 48.5 117t115.5 49q68 0 117 -49t49 -117q0 -67 -49 -115.5t-117 -48.5z" />
    <glyph glyph-name="slash" unicode="/" horiz-adv-x="1219" 
d="M-25 -407l997 1943h271l-996 -1943h-272z" />
    <glyph glyph-name="zero" unicode="0" horiz-adv-x="1223" 
d="M613 -20q-253 0 -388.5 187t-135.5 556q0 370 135 556t389 186q253 0 388 -186t135 -556q0 -369 -135.5 -556t-387.5 -187zM613 240q112 0 173.5 118.5t61.5 364.5t-62 364.5t-173 118.5q-236 0 -236 -483t236 -483z" />
    <glyph glyph-name="one" unicode="1" horiz-adv-x="1223" 
d="M572 1445h274v-1445h-287v1149l-332 -309v296z" />
    <glyph glyph-name="two" unicode="2" horiz-adv-x="1223" 
d="M503 257h616v-257h-1019v217l575 587q125 126 125 249q0 85 -51.5 134t-145.5 49q-205 0 -205 -233v-107l-287 29v72q0 225 132 347.5t358 122.5q214 0 348.5 -111t134.5 -305q0 -108 -45.5 -198t-144.5 -193z" />
    <glyph glyph-name="three" unicode="3" horiz-adv-x="1223" 
d="M609 -20q-270 0 -394 132t-124 404l295 13q0 -63 4.5 -106t18 -82t38 -61.5t65 -35.5t97.5 -13q111 0 170.5 58t59.5 152q0 103 -57 156.5t-153 53.5h-56v224h52q72 0 119.5 51t47.5 129t-52 120t-137 42q-45 0 -78 -13.5t-52.5 -34.5t-31 -53t-15 -63t-3.5 -70l-291 14
q0 227 124 347.5t344 120.5q200 0 330 -110.5t130 -274.5q0 -108 -55.5 -186t-126.5 -110q49 -14 92 -41t80.5 -69t59.5 -105t22 -140q0 -204 -143 -326.5t-380 -122.5z" />
    <glyph glyph-name="four" unicode="4" horiz-adv-x="1223" 
d="M1171 531v-257h-174v-274h-288v274h-665v258l512 913h441v-914h174zM311 531h398v741z" />
    <glyph glyph-name="five" unicode="5" horiz-adv-x="1223" 
d="M583 937q555 0 555 -456q0 -229 -140 -365.5t-369 -136.5q-142 0 -258.5 53.5t-187.5 159t-71 243.5q0 35 6 72l286 13q-7 -42 -7 -64q0 -106 65 -159.5t161 -53.5q109 0 168 61.5t59 165.5q0 110 -72 169t-242 59h-379l60 747h853v-257h-594l-19 -251h126z" />
    <glyph glyph-name="six" unicode="6" horiz-adv-x="1223" 
d="M1143 485q1 -108 -42.5 -203t-117 -160.5t-171.5 -103t-205 -37.5q-110 0 -208.5 38.5t-169 105.5t-111.5 160.5t-41 198.5q0 176 128 353l450 608h327l-375 -489q29 4 66 4q93 0 177.5 -34t149.5 -94.5t103.5 -150.5t39.5 -196zM861 492q2 114 -70 186.5t-189 72.5
q-112 0 -183 -73t-73 -182q-2 -115 67 -185.5t186 -70.5q115 0 188 70t74 182z" />
    <glyph glyph-name="seven" unicode="7" horiz-adv-x="1223" 
d="M111 1445h1017v-222l-653 -1223h-326l655 1189h-693v256z" />
    <glyph glyph-name="eight" unicode="8" horiz-adv-x="1223" 
d="M614 -20q-229 0 -377.5 121t-148.5 325q0 126 60.5 221.5t167.5 149.5q-76 49 -119.5 123t-43.5 164q0 170 129 275.5t332 105.5q199 0 327.5 -105.5t128.5 -275.5q0 -90 -42 -163.5t-116 -123.5q106 -54 166 -149.5t60 -221.5q0 -135 -69 -237.5t-187.5 -155.5
t-267.5 -53zM614 881q80 0 137 54t57 132q0 77 -57 130t-137 53q-82 0 -138.5 -53t-56.5 -130q0 -79 56.5 -132.5t138.5 -53.5zM614 238q102 0 169 61t67 164q0 100 -67.5 160.5t-168.5 60.5q-103 0 -170.5 -60.5t-67.5 -160.5q0 -103 67.5 -164t170.5 -61z" />
    <glyph glyph-name="nine" unicode="9" horiz-adv-x="1223" 
d="M614 1464q148 0 269.5 -65.5t191.5 -181t70 -256.5q0 -177 -129 -352l-450 -609h-328l374 489q-29 -4 -65 -4q-123 0 -229 57.5t-172.5 167.5t-66.5 250q-1 217 157 360.5t378 143.5zM874 950q2 114 -66.5 184.5t-185.5 70.5q-114 0 -187.5 -70.5t-74.5 -181.5
q-2 -113 70 -186t189 -73q113 0 183 73t72 183z" />
    <glyph glyph-name="colon" unicode=":" horiz-adv-x="638" 
d="M317 635q-67 0 -115.5 49t-48.5 117q0 67 48.5 115.5t115.5 48.5q68 0 117 -48.5t49 -115.5q0 -68 -49 -117t-117 -49zM317 -20q-67 0 -115.5 48.5t-48.5 115.5q0 68 48.5 117t115.5 49q68 0 117 -49t49 -117q0 -67 -49 -115.5t-117 -48.5z" />
    <glyph glyph-name="semicolon" unicode=";" horiz-adv-x="666" 
d="M362 635q-68 0 -116.5 49t-48.5 117q0 67 49 115.5t116 48.5t116.5 -48.5t49.5 -115.5q0 -68 -49.5 -117t-116.5 -49zM109 -368l125 654h296l-215 -654h-206z" />
    <glyph glyph-name="less" unicode="&#x3c;" horiz-adv-x="1344" 
d="M1218 1455v-242l-904 -457l904 -457v-246l-1130 572v263z" />
    <glyph glyph-name="equal" unicode="=" horiz-adv-x="1330" 
d="M224 814v219h883v-219h-883zM224 375v219h883v-219h-883z" />
    <glyph glyph-name="greater" unicode="&#x3e;" horiz-adv-x="1344" 
d="M126 1455l1130 -567v-263l-1130 -572v246l904 457l-904 457v242z" />
    <glyph glyph-name="question" unicode="?" horiz-adv-x="1070" 
d="M414 446v108q0 65 24.5 112t63.5 76.5t107 63.5q124 62 124 210q0 103 -57 157.5t-150 54.5q-94 0 -151 -56.5t-57 -148.5q0 -37 12 -88l-258 33q-5 43 -5 75q0 187 126 305t329 118q204 0 335 -120.5t131 -322.5q0 -82 -22 -149t-60 -112.5t-80.5 -75t-92.5 -48.5
q-45 -18 -66 -44.5t-21 -69.5v-78h-232zM534 -20q-68 0 -116.5 48t-48.5 116q0 69 48.5 116.5t116.5 47.5q67 0 115 -47.5t48 -116.5q0 -68 -47.5 -116t-115.5 -48z" />
    <glyph glyph-name="at" unicode="@" horiz-adv-x="1776" 
d="M891 -219q-159 0 -302.5 61t-247.5 164.5t-165.5 248t-61.5 304.5q0 210 100.5 387.5t280 282.5t397.5 105t396.5 -104.5t279 -282.5t100.5 -389q0 -106 -27 -185.5t-74 -124.5t-102.5 -66.5t-120.5 -21.5q-92 0 -157 24.5t-111 91.5h-14q-45 -58 -112.5 -87.5
t-142.5 -29.5q-108 0 -182.5 56.5t-74.5 157.5q0 55 23 97t65 69t84 42.5t96 27.5l202 47v37q0 113 -126 113q-61 0 -98 -26t-49 -89l-189 45q24 99 111 154t225 55q64 0 118.5 -13.5t103.5 -43.5t77 -87.5t28 -137.5v-214q0 -71 30.5 -105t96.5 -34q74 0 114 53t40 177
q0 178 -79 321.5t-218.5 224.5t-310.5 81q-173 0 -314 -82t-219.5 -220.5t-78.5 -303.5q0 -126 48.5 -240t130 -196t195 -130t238.5 -48q175 0 327 94l77 -145q-182 -115 -407 -115zM852 302q30 0 59.5 8t59.5 26t48.5 54.5t18.5 86.5v61l-158 -40q-73 -19 -101.5 -43.5
t-28.5 -65.5q0 -87 102 -87z" />
    <glyph glyph-name="A" unicode="A" horiz-adv-x="1491" 
d="M1154 0l-105 298h-607l-105 -298h-307l532 1445h367l532 -1445h-307zM530 549h431l-215 613z" />
    <glyph glyph-name="B" unicode="B" horiz-adv-x="1315" 
d="M963 763q272 -75 272 -358q0 -188 -115 -296.5t-338 -108.5h-595v1445h468q231 0 353.5 -104.5t122.5 -291.5q0 -97 -42.5 -171.5t-125.5 -114.5zM658 1196h-182v-340h195q92 0 138 48t46 126q0 75 -50 120.5t-147 45.5zM726 257q113 0 165.5 51t52.5 130q0 81 -53 134
t-171 53h-244v-368h250z" />
    <glyph glyph-name="C" unicode="C" horiz-adv-x="1569" 
d="M827 -20q-158 0 -294.5 53t-234.5 148t-154 235t-56 307q0 223 96 392.5t263.5 259.5t379.5 90q242 0 424 -117t259 -322l-280 -102q-48 125 -155 195t-248 70q-192 0 -316 -126t-124 -340t124.5 -340.5t315.5 -126.5q140 0 247.5 70.5t155.5 195.5l280 -102
q-77 -205 -259 -322.5t-424 -117.5z" />
    <glyph glyph-name="D" unicode="D" horiz-adv-x="1493" 
d="M187 0v1445h523q170 0 301.5 -52t216 -147.5t128 -227.5t43.5 -295q0 -164 -43.5 -296t-128 -227.5t-216 -147.5t-301.5 -52h-523zM487 265h208q196 0 292 117.5t96 340.5t-96 340.5t-292 117.5h-208v-916z" />
    <glyph glyph-name="E" unicode="E" horiz-adv-x="1147" 
d="M1025 1181h-536v-328h475v-261h-475v-327h536v-265h-838v1445h838v-264z" />
    <glyph glyph-name="F" unicode="F" horiz-adv-x="1108" 
d="M1039 1181h-550v-328h475v-261h-475v-592h-302v1445h852v-264z" />
    <glyph glyph-name="G" unicode="G" horiz-adv-x="1642" 
d="M812 -20q-155 0 -288.5 52.5t-230 147.5t-151 234t-54.5 305q0 168 56 308.5t154 236t234.5 148.5t294.5 53q209 0 375.5 -88.5t260.5 -251.5l-263 -140q-56 109 -152.5 164t-220.5 55q-193 0 -315.5 -127t-122.5 -351q0 -221 122 -353t327 -132q96 0 176 31t140 100.5
t80 171.5h-395v241h679v-785h-236v200q-149 -220 -470 -220z" />
    <glyph glyph-name="H" unicode="H" horiz-adv-x="1585" 
d="M1098 1445h300v-1445h-300v594h-611v-594h-300v1445h300v-590h611v590z" />
    <glyph glyph-name="I" unicode="I" horiz-adv-x="673" 
d="M187 0v1445h300v-1445h-300z" />
    <glyph glyph-name="J" unicode="J" horiz-adv-x="1013" 
d="M407 -20q-191 0 -382 100l127 247q109 -77 219 -77q90 0 134 57.5t44 182.5v955h300v-1011q0 -217 -120.5 -335.5t-321.5 -118.5z" />
    <glyph glyph-name="K" unicode="K" horiz-adv-x="1453" 
d="M1042 0l-449 614h-106v-614h-300v1445h300v-568h102l453 568h366l-560 -691l577 -754h-383z" />
    <glyph glyph-name="L" unicode="L" horiz-adv-x="982" 
d="M487 265h453v-265h-753v1445h300v-1180z" />
    <glyph glyph-name="M" unicode="M" horiz-adv-x="1970" 
d="M1843 0h-299l-95 1089l-366 -1089h-194l-366 1089l-96 -1089h-300l121 1445h428l308 -907l312 907h428z" />
    <glyph glyph-name="N" unicode="N" horiz-adv-x="1660" 
d="M1174 1445h299v-1445h-347l-640 1033v-1033h-299v1445h343l644 -1027v1027z" />
    <glyph glyph-name="O" unicode="O" horiz-adv-x="1654" 
d="M827 -20q-212 0 -379.5 90.5t-263.5 260.5t-96 392q0 223 96 392.5t263.5 259.5t379.5 90t379 -90t263 -259.5t96 -392.5q0 -222 -96 -392t-263.5 -260.5t-378.5 -90.5zM827 255q192 0 316 126.5t124 341.5q0 214 -124 340t-316 126t-316 -126t-124 -340
q0 -215 124 -341.5t316 -126.5z" />
    <glyph glyph-name="P" unicode="P" horiz-adv-x="1312" 
d="M788 1445q207 0 333 -134.5t126 -332.5q0 -201 -125 -330.5t-334 -129.5h-301v-518h-300v1445h601zM738 769q110 0 165 56.5t55 156.5q0 97 -55.5 154.5t-164.5 57.5h-251v-425h251z" />
    <glyph glyph-name="Q" unicode="Q" horiz-adv-x="1686" 
d="M1617 -60l-250 -95l-185 208q-158 -73 -348 -73q-214 0 -383.5 90.5t-267 260.5t-97.5 392q0 223 97.5 392.5t266.5 259.5t384 90t384 -90t266.5 -259.5t97.5 -392.5q0 -318 -192 -521zM385 723q0 -225 126 -353.5t323 -128.5t323 128.5t126 353.5q0 214 -127 340
t-322 126t-322 -126t-127 -340z" />
    <glyph glyph-name="R" unicode="R" horiz-adv-x="1338" 
d="M950 0l-376 636h-87v-636h-300v1445h524q119 0 210 -33.5t145.5 -93t82 -136.5t27.5 -169q0 -145 -79 -237.5t-227 -124.5l435 -651h-355zM487 1196v-345h177q225 0 225 172q0 81 -55 127t-170 46h-177z" />
    <glyph glyph-name="S" unicode="S" horiz-adv-x="1297" 
d="M667 -20q-238 0 -401 110.5t-195 309.5l310 71q15 -119 95.5 -182.5t202.5 -63.5q97 0 158 44.5t60 131.5q0 61 -51 107t-101.5 65.5t-162.5 53.5q-15 5 -22 7q-57 18 -92 30t-86.5 33.5t-84 42t-69.5 52t-58 66.5t-35 83t-14 103q0 131 67.5 227.5t182 145t260.5 48.5
q99 0 188.5 -21t168.5 -64.5t134.5 -119t76.5 -175.5l-290 -72q-39 207 -260 207q-98 0 -161 -42t-63 -127q0 -79 105 -128q49 -24 201 -69q59 -18 96 -30t93 -35t91 -44.5t76 -55.5t64.5 -72t39.5 -89.5t16 -111.5q0 -90 -29 -163t-79.5 -123t-119.5 -84.5t-147 -50
t-165 -15.5z" />
    <glyph glyph-name="T" unicode="T" horiz-adv-x="1065" 
d="M1025 1445v-264h-343v-1181h-297v1181h-345v264h985z" />
    <glyph glyph-name="U" unicode="U" horiz-adv-x="1446" 
d="M722 -20q-121 0 -222.5 31.5t-178.5 94.5t-120.5 165t-43.5 235v939h300v-898q0 -156 72.5 -229t192.5 -73t193.5 73.5t73.5 228.5v898h300v-939q0 -133 -43.5 -235t-121 -165t-179 -94.5t-223.5 -31.5z" />
    <glyph glyph-name="V" unicode="V" horiz-adv-x="1455" 
d="M1106 1445h319l-534 -1445h-330l-531 1445h318l379 -1095z" />
    <glyph glyph-name="W" unicode="W" horiz-adv-x="2175" 
d="M422 0l-378 1445h312l282 -1094l323 1094h253l321 -1094l285 1094h311l-378 -1445h-386l-280 893l-279 -893h-386z" />
    <glyph glyph-name="X" unicode="X" horiz-adv-x="1540" 
d="M29 0l563 754l-547 691h365l360 -474l360 474h365l-547 -691l563 -754h-382l-359 511l-359 -511h-382z" />
    <glyph glyph-name="Y" unicode="Y" horiz-adv-x="1287" 
d="M1271 1445l-475 -753v-692h-301v685l-478 760h332l295 -492l296 492h331z" />
    <glyph glyph-name="Z" unicode="Z" horiz-adv-x="1232" 
d="M450 265h694v-265h-1053v237l685 944h-684v264h1039v-237z" />
    <glyph glyph-name="bracketleft" unicode="[" horiz-adv-x="708" 
d="M149 -512v2048h517v-204h-264v-1640h264v-204h-517z" />
    <glyph glyph-name="backslash" unicode="\" horiz-adv-x="1219" 
d="M972 -407l-997 1943h272l996 -1943h-271z" />
    <glyph glyph-name="bracketright" unicode="]" horiz-adv-x="701" 
d="M552 -512h-517v204h264v1640h-264v204h517v-2048z" />
    <glyph glyph-name="asciicircum" unicode="^" horiz-adv-x="1423" 
d="M1355 315h-243l-400 882l-400 -882h-244l512 1130h263z" />
    <glyph glyph-name="underscore" unicode="_" horiz-adv-x="1316" 
d="M146 -241v241h1024v-241h-1024z" />
    <glyph glyph-name="grave" unicode="`" horiz-adv-x="487" 
d="M277 1200l-226 268l141 100l263 -368h-178z" />
    <glyph glyph-name="a" unicode="a" horiz-adv-x="1123" 
d="M992 279q0 -164 25 -251v-28h-269l-23 112q-55 -66 -144 -99t-186 -33q-51 0 -96 9t-86.5 30.5t-71.5 53.5t-48 81.5t-18 111.5t19 111.5t50 83.5t81 61t102 44t122 32l169 38q54 13 76.5 32.5t22.5 51.5q0 69 -50.5 99t-122.5 30q-177 0 -201 -157l-255 46
q32 159 149 234.5t323 75.5q432 0 432 -371v-398zM485 175q109 0 178 74.5t69 220.5l-244 -69q-67 -16 -102.5 -42t-35.5 -74q0 -53 38 -81.5t97 -28.5z" />
    <glyph glyph-name="b" unicode="b" horiz-adv-x="1315" 
d="M753 1048q101 0 191 -37t157.5 -104.5t106.5 -169.5t39 -225t-39 -225t-106.5 -169.5t-157.5 -104.5t-191 -37q-108 0 -194.5 41.5t-129.5 116.5l-7 -134h-273v1536h288v-633q44 69 128.5 107t187.5 38zM686 215q118 0 195.5 81t77.5 216q0 136 -77.5 217t-195.5 81
q-116 0 -194 -82.5t-78 -215.5t77.5 -215t194.5 -82z" />
    <glyph glyph-name="c" unicode="c" horiz-adv-x="1175" 
d="M614 -19q-243 0 -397 148t-154 386q0 239 153.5 386t397.5 147q198 0 333 -99t172 -279l-266 -29q-23 90 -86 135t-156 45q-116 0 -188 -84t-72 -222q0 -137 72 -221.5t188 -84.5q93 0 155.5 45t86.5 135l266 -29q-37 -179 -173.5 -279t-331.5 -100z" />
    <glyph glyph-name="d" unicode="d" horiz-adv-x="1315" 
d="M878 1536h288v-1536h-273l-7 134q-44 -75 -130.5 -116.5t-192.5 -41.5q-102 0 -192 37t-157.5 104.5t-106.5 169.5t-39 225q0 163 68 286.5t179.5 186.5t247.5 63q103 0 186.5 -37.5t128.5 -106.5v632zM629 215q117 0 194.5 82t77.5 215t-78 215.5t-194 82.5
q-118 0 -195.5 -81t-77.5 -217q0 -135 77.5 -216t195.5 -81z" />
    <glyph glyph-name="e" unicode="e" horiz-adv-x="1186" 
d="M1116 529l-3 -69h-762q9 -123 82 -188t181 -65q78 0 135.5 35.5t86.5 103.5l264 -39q-51 -155 -180 -241t-304 -86q-252 0 -400.5 141.5t-148.5 392.5q0 249 149 392.5t391 143.5q230 0 369 -131t140 -390zM609 846q-210 0 -250 -198h472q-11 96 -71 147t-151 51z" />
    <glyph glyph-name="f" unicode="f" horiz-adv-x="743" 
d="M729 1306h-6q-28 0 -42.5 -0.5t-41 -3.5t-41.5 -9t-34.5 -18.5t-30 -30t-18 -44.5t-7.5 -62v-110h221v-221h-221v-807h-287v807h-201v221h201v111q0 73 13 131t35 99.5t58.5 71.5t76 48t94.5 29t108.5 14.5t122.5 3.5v-230z" />
    <glyph glyph-name="g" unicode="g" horiz-adv-x="1281" 
d="M857 1028h274v-951q0 -147 -38.5 -256t-111.5 -175.5t-171 -98.5t-224 -32q-407 0 -530 319l239 102q44 -101 111 -149t169 -48q267 0 267 317v120q-46 -63 -129.5 -101.5t-182.5 -38.5q-95 0 -180.5 36.5t-149.5 102t-101.5 161.5t-37.5 208q0 113 37.5 208.5t102 159.5
t150 100t181.5 36q106 0 190.5 -42.5t127.5 -113.5zM604 269q112 0 189 80t77 195q0 116 -76.5 196t-189.5 80q-114 0 -189.5 -78.5t-75.5 -197.5q0 -117 76.5 -196t188.5 -79z" />
    <glyph glyph-name="h" unicode="h" horiz-adv-x="1267" 
d="M771 1048q175 0 271.5 -97.5t96.5 -287.5v-663h-289v616q0 106 -51 153.5t-136 47.5q-43 0 -80.5 -12t-71.5 -38.5t-53.5 -77.5t-20.5 -122v-567h-288v1536h288v-631q117 143 334 143z" />
    <glyph glyph-name="i" unicode="i" horiz-adv-x="588" 
d="M296 1182q-69 0 -118 48.5t-49 117.5q0 68 49.5 116.5t117.5 48.5q67 0 116 -48.5t49 -116.5q0 -69 -49 -117.5t-116 -48.5zM149 0v1028h290v-1028h-290z" />
    <glyph glyph-name="j" unicode="j" horiz-adv-x="591" 
d="M297 1182q-69 0 -118 48.5t-49 117.5q0 68 49.5 116.5t117.5 48.5q67 0 116 -48.5t49 -116.5q0 -69 -49 -117.5t-116 -48.5zM-61 -482v225q67 0 108 14.5t64 51.5t30.5 88.5t7.5 137.5v993h292v-993q0 -269 -117 -393t-385 -124z" />
    <glyph glyph-name="k" unicode="k" horiz-adv-x="1179" 
d="M831 0l-331 432h-60v-432h-291v1536h291v-904h54l323 396h326l-405 -477l443 -551h-350z" />
    <glyph glyph-name="l" unicode="l" horiz-adv-x="589" 
d="M149 0v1536h291v-1536h-291z" />
    <glyph glyph-name="m" unicode="m" horiz-adv-x="1860" 
d="M1367 1048q168 0 265 -83.5t97 -239.5v-725h-288v643q0 86 -46 130t-116 44q-86 0 -140 -56t-54 -181v-580h-291v640q0 88 -46 132.5t-119 44.5q-85 0 -139 -59t-54 -193v-565h-287v1028h287v-121q105 141 298 141q112 0 193.5 -39.5t121.5 -114.5q108 154 318 154z" />
    <glyph glyph-name="n" unicode="n" horiz-adv-x="1269" 
d="M756 1048q185 0 284 -92.5t99 -263.5v-692h-289v630q0 97 -51.5 142t-132.5 45q-47 0 -86 -13t-72 -40.5t-51.5 -77.5t-19.5 -119v-567h-288v1028h288v-114q114 134 319 134z" />
    <glyph glyph-name="o" unicode="o" horiz-adv-x="1257" 
d="M628 -20q-164 0 -291 63t-199.5 185t-72.5 287q0 247 156 390t407 143q252 0 408 -143t156 -390q0 -248 -156 -391.5t-408 -143.5zM625 209q126 0 203.5 84t77.5 222t-77.5 222t-203.5 84q-121 0 -197.5 -84.5t-76.5 -221.5t76.5 -221.5t197.5 -84.5z" />
    <glyph glyph-name="p" unicode="p" horiz-adv-x="1315" 
d="M752 1048q102 0 192 -37t157.5 -104t106.5 -169.5t39 -225.5t-39 -225.5t-106.5 -169.5t-157.5 -104t-192 -37t-186 38t-129 108v-622h-288v1528h273l8 -138q42 75 128.5 116.5t193.5 41.5zM687 215q117 0 194.5 80.5t77.5 216.5t-77.5 216.5t-194.5 80.5
q-118 0 -196 -82t-78 -215t78 -215t196 -82z" />
    <glyph glyph-name="q" unicode="q" horiz-adv-x="1315" 
d="M892 1028h273v-1528h-288v620q-45 -68 -129 -106t-185 -38q-102 0 -192 37t-157.5 104t-106.5 169.5t-39 225.5t39 225.5t106.5 169.5t157.5 104t192 37q106 0 192.5 -40.5t129.5 -114.5zM628 215q118 0 195.5 82t77.5 215t-78 215t-195 82t-194.5 -80.5t-77.5 -216.5
t77.5 -216.5t194.5 -80.5z" />
    <glyph glyph-name="r" unicode="r" horiz-adv-x="781" 
d="M425 865q41 72 135 123.5t201 51.5v-257q-170 0 -246 -62t-76 -220v-501h-290v1028h276v-163z" />
    <glyph glyph-name="s" unicode="s" horiz-adv-x="992" 
d="M511 -20q-180 0 -300 72t-147 214l241 68q43 -153 206 -153q63 0 105 23.5t41 79.5q0 31 -17 53t-52.5 38t-70 27t-91.5 26.5t-95 29.5q-52 18 -90.5 38.5t-75 53t-56 80.5t-19.5 110q0 152 111.5 230t291.5 78q160 0 269 -66t138 -206l-223 -50q-42 130 -183 130
q-61 0 -101 -23t-40 -68q0 -17 6 -31t21 -25t29 -19t41 -16.5t45 -13t52.5 -13.5t53.5 -14q55 -15 96.5 -30t88.5 -42t77.5 -60.5t50.5 -85t20 -114.5q0 -85 -34.5 -149t-94.5 -100.5t-133.5 -54t-160.5 -17.5z" />
    <glyph glyph-name="t" unicode="t" horiz-adv-x="796" 
d="M532 0q-150 0 -232 83.5t-82 237.5v486h-202v221h65q87 0 128 43t41 153v136h260v-332h212v-221h-212v-455q0 -133 119 -133h93v-219h-190z" />
    <glyph glyph-name="u" unicode="u" horiz-adv-x="1267" 
d="M830 1028h288v-1028h-273l-7 124q-114 -144 -327 -144q-185 0 -284 92.5t-99 263.5v692h289v-630q0 -96 51.5 -141t133.5 -45q100 0 163.5 58.5t64.5 190.5v567z" />
    <glyph glyph-name="v" unicode="v" horiz-adv-x="1125" 
d="M818 1028h305l-438 -1028h-250l-433 1028h303l256 -703z" />
    <glyph glyph-name="w" unicode="w" horiz-adv-x="1752" 
d="M1443 1028h298l-360 -1029h-267l-238 679l-240 -679h-271l-353 1029h297l212 -669l243 669h221l242 -667z" />
    <glyph glyph-name="x" unicode="x" horiz-adv-x="1208" 
d="M8 0l422 515l-422 513h360l236 -324l238 324h357l-423 -514l423 -514h-357l-236 322l-237 -322h-361z" />
    <glyph glyph-name="y" unicode="y" horiz-adv-x="1120" 
d="M822 1028h295l-634 -1512h-292l235 526l-423 986h314l245 -676z" />
    <glyph glyph-name="z" unicode="z" horiz-adv-x="947" 
d="M899 1028l-452 -806h438v-222h-847l450 806h-415v222h826z" />
    <glyph glyph-name="braceleft" unicode="{" horiz-adv-x="688" 
d="M507 -493q-144 0 -228 78t-84 198v405q0 59 -4.5 96t-12.5 62.5t-29 42t-42.5 27t-64.5 25.5v160q43 15 64.5 25.5t42.5 27.5t29 42.5t12.5 62.5t4.5 96v405q0 120 84 198t228 78h124v-202h-69q-45 0 -72 -28.5t-27 -84.5v-366q0 -55 -4.5 -94.5t-19.5 -79.5t-41 -67.5
t-70 -51.5t-106 -40q62 -16 106 -40.5t70 -52.5t41 -67.5t19.5 -78.5t4.5 -94v-370q0 -59 23 -84.5t76 -25.5h69v-202h-124z" />
    <glyph glyph-name="bar" unicode="|" horiz-adv-x="627" 
d="M224 -307v1843h179v-1843h-179z" />
    <glyph glyph-name="braceright" unicode="}" horiz-adv-x="684" 
d="M177 -493h-124v202h69q53 0 76 25.5t23 84.5v370q0 55 4.5 94t19.5 78.5t41 67.5t70 52.5t106 40.5q-62 16 -106 40t-70 51.5t-41 67.5t-19.5 79.5t-4.5 94.5v366q0 56 -27 84.5t-72 28.5h-69v202h124q144 0 228 -78t84 -198v-405q0 -59 4.5 -96t12.5 -62.5t29 -42.5
t42.5 -27.5t64.5 -25.5v-160q-43 -15 -64.5 -25.5t-42.5 -27t-29 -42t-12.5 -62.5t-4.5 -96v-405q0 -120 -84 -198t-228 -78z" />
    <glyph glyph-name="asciitilde" unicode="~" horiz-adv-x="1382" 
d="M899 317q-33 0 -63.5 5.5t-57.5 18t-47 23t-43 30t-33 28.5t-29.5 29.5t-22.5 23.5q-54 53 -99 53q-65 0 -100 -57t-37 -138h-204q-8 179 85.5 289.5t260.5 110.5q88 0 147 -35.5t116 -111.5q18 -23 29.5 -34.5t33 -23.5t46.5 -12q58 0 96.5 53t34.5 140h202
q15 -167 -75.5 -279.5t-239.5 -112.5z" />
    <glyph glyph-name="exclamdown" unicode="&#xa1;" horiz-adv-x="669" 
d="M333 1046q69 0 117.5 -48t48.5 -116q0 -69 -48.5 -117.5t-117.5 -48.5q-68 0 -116 48.5t-48 117.5q0 68 48.5 116t115.5 48zM217 565h232l29 -984h-290z" />
    <glyph glyph-name="cent" unicode="&#xa2;" horiz-adv-x="1145" 
d="M648 463q64 0 117 32t89 90l198 -174q-130 -160 -336 -186v-225h-169v230q-191 34 -309.5 181t-118.5 359t118.5 359t309.5 181v226h169v-221q206 -26 336 -186l-198 -173q-76 121 -206 121q-108 0 -181 -85t-73 -222t73 -222t181 -85z" />
    <glyph glyph-name="sterling" unicode="&#xa3;" horiz-adv-x="1333" 
d="M137 0v173l59 12q92 20 92 122v287h-151v208h151v154q0 225 137.5 369t355.5 144q63 0 121.5 -13.5t112 -43.5t93.5 -73.5t63.5 -108t23.5 -143.5q0 -31 -5 -73l-249 -56q13 53 13 96q0 86 -50 130.5t-129 44.5q-106 0 -164.5 -70t-58.5 -203v-154h285v-208h-285v-348
h621v-246h-1036z" />
    <glyph glyph-name="currency" unicode="&#xa4;" horiz-adv-x="1394" 
d="M325 217l-152 160l108 107q-76 119 -76 258q0 142 77 260l-106 106l151 160l111 -111q119 77 262 77q142 0 257 -76l109 109l155 -155l-107 -108q75 -117 75 -261q0 -141 -75 -261l105 -105l-151 -160l-111 111q-115 -75 -260 -75q-143 0 -261 75zM697 468
q116 0 195 82.5t79 194.5t-80 192t-193 80q-114 0 -194 -81.5t-80 -196.5t81 -193t192 -78z" />
    <glyph glyph-name="yen" unicode="&#xa5;" horiz-adv-x="1438" 
d="M571 0v209h-343v173h343v192h-343v173h304l-446 698h332l302 -492l303 492h330l-446 -698h304v-173h-340v-192h340v-173h-340v-209h-300z" />
    <glyph glyph-name="brokenbar" unicode="&#xa6;" horiz-adv-x="627" 
d="M224 799v737h179v-737h-179zM224 -307v737h179v-737h-179z" />
    <glyph glyph-name="section" unicode="&#xa7;" horiz-adv-x="1301" 
d="M1058 215q99 -94 99 -242q0 -81 -26.5 -148t-72.5 -112.5t-110 -76.5t-136.5 -45t-154.5 -14q-213 0 -360 100.5t-176 278.5l251 58q18 -113 98 -174t197 -61q106 0 172.5 46t65.5 139q0 39 -18.5 71t-45 53.5t-73 41.5t-85 32t-98.5 30q-3 1 -4 1t-3 1t-4 1
q-52 15 -86.5 26.5t-81.5 30.5t-78 38t-64.5 47.5t-53 61t-32.5 76.5t-13 96q0 160 110 256q-110 90 -110 243q0 122 62 210t166 131.5t236 43.5q92 0 174.5 -19.5t153.5 -59.5t120.5 -107.5t67.5 -156.5l-236 -60q-21 102 -90.5 151t-176.5 49q-99 0 -164.5 -44t-65.5 -133
q0 -53 46 -92.5t91.5 -56.5t147.5 -46q9 -3 13 -4q57 -17 91 -27.5t87.5 -31t85.5 -40t71 -51t60.5 -65.5t36.5 -82t15 -104q0 -159 -99 -260zM412 576q0 -84 106 -135q51 -24 192 -65q99 -29 134 -42q62 43 61 129q0 32 -11 59t-35.5 48.5t-47.5 37t-66.5 31.5t-72 25
t-81.5 25q-11 3 -17 5q-11 4 -33 10.5t-33 9.5q-96 -40 -96 -138z" />
    <glyph glyph-name="dieresis" unicode="&#xa8;" horiz-adv-x="974" 
d="M272 1182q-69 0 -118 48.5t-49 117.5q0 68 49.5 116.5t117.5 48.5q67 0 116 -48.5t49 -116.5q0 -69 -49 -117.5t-116 -48.5zM703 1182q-69 0 -118 48.5t-49 117.5q0 68 49 116.5t118 48.5q67 0 116 -48.5t49 -116.5q0 -69 -49 -117.5t-116 -48.5z" />
    <glyph glyph-name="copyright" unicode="&#xa9;" horiz-adv-x="1722" 
d="M860 -20q-151 0 -288.5 59t-237.5 159t-159 238t-59 289t59 289t159 238t237.5 159t288.5 59q121 0 235 -37.5t205.5 -107t161 -161t107 -205t37.5 -234.5t-37.5 -234.5t-107 -205t-161 -161t-205.5 -107t-235 -37.5zM860 132q163 0 299.5 78.5t215 215t78.5 299.5
t-78.5 299t-215 214.5t-299.5 78.5t-299 -78.5t-214.5 -214.5t-78.5 -299t78.5 -299.5t214.5 -215t299 -78.5zM864 305q-172 0 -294.5 122.5t-122.5 295.5q0 174 122 295.5t295 121.5q97 0 183.5 -41.5t143.5 -114.5l-129 -102q-73 98 -198 98q-106 0 -178 -73.5t-72 -183.5
q0 -109 72 -182t178 -73q126 0 198 97l129 -102q-57 -73 -143.5 -115.5t-183.5 -42.5z" />
    <glyph glyph-name="ordfeminine" unicode="&#xaa;" horiz-adv-x="953" 
d="M618 1445h164v-614h-164v88q-79 -100 -211 -100q-127 0 -216 93t-89 226t89 226.5t216 93.5q131 0 211 -101v88zM441 962q73 0 125 51.5t52 124.5t-52 124t-125 51t-124.5 -51t-51.5 -124t51.5 -124.5t124.5 -51.5z" />
    <glyph glyph-name="guillemotleft" unicode="&#xab;" horiz-adv-x="1105" 
d="M354 275l-312 377l312 376h231l-311 -376l311 -377h-231zM818 275l-311 377l311 376h233l-311 -376l311 -377h-233z" />
    <glyph glyph-name="logicalnot" unicode="&#xac;" horiz-adv-x="1678" 
d="M1222 270v525h-1112v233h1344v-758h-232z" />
    <glyph glyph-name="uni00AD" unicode="&#xad;" horiz-adv-x="1009" 
d="M146 418v248h717v-248h-717z" />
    <glyph glyph-name="registered" unicode="&#xae;" horiz-adv-x="1766" 
d="M882 1470q121 0 235 -37.5t205.5 -107t161 -161t107 -205t37.5 -234.5t-37.5 -234.5t-107 -205t-161 -161t-205.5 -107t-235 -37.5q-151 0 -288.5 59t-237.5 159t-159 238t-59 289t59 289t159 238t237.5 159t288.5 59zM882 132q163 0 299.5 78.5t215 215t78.5 299.5
t-78.5 299t-215 214.5t-299.5 78.5t-299 -78.5t-214.5 -214.5t-78.5 -299t78.5 -299.5t214.5 -215t299 -78.5zM1207 894q0 -71 -35.5 -128.5t-95.5 -87.5l157 -367h-181l-135 341h-129v-341h-166v827h341q102 0 173 -71t71 -173zM788 992v-203h149q47 0 78.5 29t31.5 73
t-31.5 72.5t-78.5 28.5h-149z" />
    <glyph glyph-name="macron" unicode="&#xaf;" horiz-adv-x="954" 
d="M145 1228v170h664v-170h-664z" />
    <glyph glyph-name="degree" unicode="&#xb0;" horiz-adv-x="922" 
d="M461 853q-128 0 -217.5 89t-89.5 217t89.5 217.5t217.5 89.5t217 -89.5t89 -217.5t-89 -217t-217 -89zM461 1012q62 0 104 42.5t42 104.5t-42 104.5t-104 42.5t-104 -42.5t-42 -104.5t42 -104.5t104 -42.5z" />
    <glyph glyph-name="plusminus" unicode="&#xb1;" horiz-adv-x="1255" 
d="M522 368v385h-385v219h385v386h219v-386h385v-219h-385v-385h-219zM126 0v219h995v-219h-995z" />
    <glyph glyph-name="acute" unicode="&#xb4;" horiz-adv-x="487" 
d="M32 1200l262 368l142 -100l-227 -268h-177z" />
    <glyph glyph-name="uni00B5" unicode="&#xb5;" horiz-adv-x="1352" 
d="M933 1028h249v-1028h-249v128q-58 -70 -138 -109t-171 -39t-172 39v-531h-228v1540h249v-607q0 -93 64.5 -157.5t157.5 -64.5q100 0 169 64.5t69 157.5v607z" />
    <glyph glyph-name="paragraph" unicode="&#xb6;" horiz-adv-x="1192" 
d="M483 -307v1066h-40q-171 0 -267.5 89.5t-96.5 254.5q0 166 96.5 254t267.5 88h186v-1752h-146zM820 -307v1752h148v-1752h-148z" />
    <glyph glyph-name="periodcentered" unicode="&#xb7;" horiz-adv-x="591" 
d="M296 615q-50 0 -86.5 35.5t-36.5 86.5q0 49 36.5 85.5t86.5 36.5q48 0 85 -36.5t37 -85.5q0 -51 -36.5 -86.5t-85.5 -35.5z" />
    <glyph glyph-name="cedilla" unicode="&#xb8;" horiz-adv-x="591" 
d="M298 -532q-85 0 -149.5 43t-89.5 108l127 44q15 -29 44.5 -46.5t61.5 -17.5q39 0 66.5 25.5t27.5 66.5q0 43 -27.5 67t-68.5 24q-46 0 -74 -31l-105 62l122 223h137l-90 -159q30 6 45 6q85 0 140.5 -54t55.5 -138q0 -94 -64.5 -158.5t-158.5 -64.5z" />
    <glyph glyph-name="ordmasculine" unicode="&#xba;" horiz-adv-x="875" 
d="M436 827q-142 0 -240.5 92.5t-98.5 226.5t98.5 227t240.5 93t241.5 -93t99.5 -227q0 -133 -99 -226t-242 -93zM436 970q73 0 125 51.5t52 124.5t-52 124.5t-125 51.5t-124.5 -51.5t-51.5 -124.5t51.5 -124.5t124.5 -51.5z" />
    <glyph glyph-name="guillemotright" unicode="&#xbb;" horiz-adv-x="1105" 
d="M54 275l311 377l-311 376h231l312 -376l-312 -377h-231zM519 275l311 377l-311 376h232l312 -376l-312 -377h-232z" />
    <glyph glyph-name="onequarter" unicode="&#xbc;" horiz-adv-x="1608" 
d="M362 524h-170l1 761l-193 -150l-1 163l206 147h157v-921zM1021 1445h184l-815 -1445h-184zM1565 323v-128h-97v-195h-164v195h-423v146l365 581h222v-599h97zM1022 323h282v468z" />
    <glyph glyph-name="onehalf" unicode="&#xbd;" horiz-adv-x="1650" 
d="M362 524h-170l1 761l-193 -150l-1 163l206 147h157v-921zM1021 1445h184l-815 -1445h-184zM1147 134h451v-134h-631v161q115 78 198.5 144.5t131 114t75 90.5t35.5 71.5t8 59.5q0 85 -39 120.5t-95 32.5q-68 -4 -99 -48.5t-29 -110.5h-177q-3 131 87 216t228 85
q129 0 208.5 -76.5t81.5 -200.5q3 -277 -434 -525z" />
    <glyph glyph-name="threequarters" unicode="&#xbe;" horiz-adv-x="1824" 
d="M652 814q0 -123 -89.5 -208.5t-224.5 -85.5q-132 0 -221 77t-89 193h177q0 -62 37.5 -95.5t96.5 -33.5q63 0 101 39.5t38 108.5q0 67 -41 103.5t-119 36.5h-44v132h33q135 0 135 129q0 56 -30.5 88t-79.5 32q-111 0 -111 -128l-172 1q0 119 79.5 191t203.5 72
q118 0 193.5 -70.5t75.5 -181.5q0 -113 -87 -177q138 -71 138 -223zM1237 1445h184l-815 -1445h-184zM1781 323v-128h-97v-195h-164v195h-423v146l365 581h222v-599h97zM1238 323h282v468z" />
    <glyph glyph-name="questiondown" unicode="&#xbf;" horiz-adv-x="1070" 
d="M521 1048q68 0 116.5 -48t48.5 -116q0 -69 -48.5 -116.5t-116.5 -47.5q-67 0 -115 47.5t-48 116.5q0 68 47.5 116t115.5 48zM641 582v-108q0 -65 -24.5 -112t-63.5 -76.5t-107 -63.5q-124 -62 -124 -210q0 -103 57 -157.5t150 -54.5q94 0 151 56.5t57 148.5q0 37 -12 88
l258 -33q5 -43 5 -75q0 -187 -126 -305t-329 -118q-204 0 -335 120.5t-131 322.5q0 82 22 149t60 112.5t80.5 75t92.5 48.5q45 18 66 44.5t21 69.5v78h232z" />
    <glyph glyph-name="Agrave" unicode="&#xc0;" horiz-adv-x="1491" 
d="M835 1580h-178l-226 267l141 101zM1154 0l-105 298h-607l-105 -298h-307l532 1445h367l532 -1445h-307zM530 549h431l-215 613z" />
    <glyph glyph-name="Aacute" unicode="&#xc1;" horiz-adv-x="1491" 
d="M1061 1847l-227 -267h-177l262 368zM1154 0l-105 298h-607l-105 -298h-307l532 1445h367l532 -1445h-307zM530 549h431l-215 613z" />
    <glyph glyph-name="Acircumflex" unicode="&#xc2;" horiz-adv-x="1491" 
d="M745 1746l-136 -166h-177l227 299h173l227 -299h-177zM1154 0l-105 298h-607l-105 -298h-307l532 1445h367l532 -1445h-307zM530 549h431l-215 613z" />
    <glyph glyph-name="Atilde" unicode="&#xc3;" horiz-adv-x="1491" 
d="M630 1740q-41 0 -62.5 -38t-21.5 -99h-151q0 118 62 192.5t168 74.5q103 0 168 -73q6 -7 22.5 -26t24.5 -26.5t23.5 -15.5t31.5 -8q78 0 78 135h153q0 -117 -60.5 -191.5t-170.5 -74.5q-63 0 -101 21.5t-69 58.5q-3 3 -12 14.5t-12 15.5t-11 12.5t-13 11.5t-13 8
t-16.5 6.5t-17.5 1.5zM1154 0l-105 298h-607l-105 -298h-307l532 1445h367l532 -1445h-307zM530 549h431l-215 613z" />
    <glyph glyph-name="Adieresis" unicode="&#xc4;" horiz-adv-x="1491" 
d="M531 1536q-69 0 -118 48.5t-49 117.5q0 68 49 116t118 48q67 0 116 -48t49 -116q0 -69 -49 -117.5t-116 -48.5zM962 1536q-69 0 -118 48.5t-49 117.5q0 68 49 116t118 48q67 0 116 -48t49 -116q0 -69 -49 -117.5t-116 -48.5zM1154 0l-105 298h-607l-105 -298h-307
l532 1445h367l532 -1445h-307zM530 549h431l-215 613z" />
    <glyph glyph-name="Aring" unicode="&#xc5;" horiz-adv-x="1491" 
d="M746 1580q-100 0 -170.5 70.5t-70.5 169.5q0 98 70.5 167.5t170.5 69.5q98 0 167.5 -69.5t69.5 -167.5q0 -99 -69.5 -169.5t-167.5 -70.5zM746 1940q-49 0 -82.5 -35.5t-33.5 -84.5q0 -53 33 -86t83 -33t84 33.5t34 85.5q0 49 -34.5 84.5t-83.5 35.5zM1154 0l-105 298
h-607l-105 -298h-307l532 1445h367l532 -1445h-307zM530 549h431l-215 613z" />
    <glyph glyph-name="AE" unicode="&#xc6;" horiz-adv-x="1883" 
d="M30 0l498 1445h1233v-264h-562v-327h486v-264h-486v-325h562v-265h-863v298h-459l-96 -298h-313zM522 549h376v632h-177z" />
    <glyph glyph-name="Ccedilla" unicode="&#xc7;" horiz-adv-x="1569" 
d="M827 256q140 0 247.5 70.5t155.5 195.5l280 -102q-72 -192 -237 -308t-386 -130l-59 -105q30 6 45 6q85 0 140.5 -54t55.5 -138q0 -94 -64.5 -158.5t-158.5 -64.5q-85 0 -149.5 43t-89.5 108l127 44q15 -29 44.5 -46.5t61.5 -17.5q39 0 66.5 25.5t27.5 66.5
q0 43 -27.5 67t-68.5 24q-46 0 -74 -31l-105 62l93 170q-144 12 -266.5 69.5t-210.5 152t-137.5 228t-49.5 290.5q0 223 96 392.5t263.5 259.5t379.5 90q242 0 424 -117t259 -322l-280 -102q-48 125 -155 195t-248 70q-192 0 -316 -126t-124 -340t124.5 -340.5t315.5 -126.5
z" />
    <glyph glyph-name="Egrave" unicode="&#xc8;" horiz-adv-x="1147" 
d="M702 1580h-178l-226 267l141 101zM1025 1181h-536v-328h475v-261h-475v-327h536v-265h-838v1445h838v-264z" />
    <glyph glyph-name="Eacute" unicode="&#xc9;" horiz-adv-x="1147" 
d="M928 1847l-227 -267h-177l262 368zM1025 1181h-536v-328h475v-261h-475v-327h536v-265h-838v1445h838v-264z" />
    <glyph glyph-name="Ecircumflex" unicode="&#xca;" horiz-adv-x="1147" 
d="M612 1746l-136 -166h-177l227 299h173l227 -299h-177zM1025 1181h-536v-328h475v-261h-475v-327h536v-265h-838v1445h838v-264z" />
    <glyph glyph-name="Edieresis" unicode="&#xcb;" horiz-adv-x="1147" 
d="M398 1536q-69 0 -118 48.5t-49 117.5q0 68 49 116t118 48q67 0 116 -48t49 -116q0 -69 -49 -117.5t-116 -48.5zM829 1536q-69 0 -118 48.5t-49 117.5q0 68 49 116t118 48q67 0 116 -48t49 -116q0 -69 -49 -117.5t-116 -48.5zM1025 1181h-536v-328h475v-261h-475v-327h536
v-265h-838v1445h838v-264z" />
    <glyph glyph-name="Igrave" unicode="&#xcc;" horiz-adv-x="673" 
d="M246 1580l-226 267l141 101l263 -368h-178zM187 0v1445h300v-1445h-300z" />
    <glyph glyph-name="Iacute" unicode="&#xcd;" horiz-adv-x="673" 
d="M246 1580l262 368l142 -101l-227 -267h-177zM187 0v1445h300v-1445h-300z" />
    <glyph glyph-name="Icircumflex" unicode="&#xce;" horiz-adv-x="673" 
d="M198 1580h-177l227 299h173l227 -299h-177l-137 166zM187 0v1445h300v-1445h-300z" />
    <glyph glyph-name="Idieresis" unicode="&#xcf;" horiz-adv-x="673" 
d="M120 1536q-69 0 -118 48.5t-49 117.5q0 68 49 116t118 48q67 0 116 -48t49 -116q0 -69 -49 -117.5t-116 -48.5zM551 1536q-69 0 -118 48.5t-49 117.5q0 68 49 116t118 48q67 0 116 -48t49 -116q0 -69 -49 -117.5t-116 -48.5zM187 0v1445h300v-1445h-300z" />
    <glyph glyph-name="Eth" unicode="&#xd0;" horiz-adv-x="1493" 
d="M710 1445q170 0 301.5 -52t216 -147.5t128 -227.5t43.5 -295q0 -164 -43.5 -296t-128 -227.5t-216 -147.5t-301.5 -52h-523v635h-154v176h154v634h523zM695 265q196 0 292 117.5t96 340.5t-96 340.5t-292 117.5h-208v-370h235v-176h-235v-370h208z" />
    <glyph glyph-name="Ntilde" unicode="&#xd1;" horiz-adv-x="1660" 
d="M715 1740q-41 0 -62.5 -38t-21.5 -99h-151q0 118 62 192.5t168 74.5q103 0 168 -73q6 -7 22.5 -26t24.5 -26.5t23.5 -15.5t31.5 -8q78 0 78 135h153q0 -117 -60.5 -191.5t-170.5 -74.5q-63 0 -101 21.5t-69 58.5q-3 3 -12 14.5t-12 15.5t-11 12.5t-13 11.5t-13 8
t-16.5 6.5t-17.5 1.5zM1174 1445h299v-1445h-347l-640 1033v-1033h-299v1445h343l644 -1027v1027z" />
    <glyph glyph-name="Ograve" unicode="&#xd2;" horiz-adv-x="1654" 
d="M738 1580l-226 267l141 101l263 -368h-178zM827 -20q-212 0 -379.5 90.5t-263.5 260.5t-96 392q0 223 96 392.5t263.5 259.5t379.5 90t379 -90t263 -259.5t96 -392.5q0 -222 -96 -392t-263.5 -260.5t-378.5 -90.5zM827 255q192 0 316 126.5t124 341.5q0 214 -124 340
t-316 126t-316 -126t-124 -340q0 -215 124 -341.5t316 -126.5z" />
    <glyph glyph-name="Oacute" unicode="&#xd3;" horiz-adv-x="1654" 
d="M738 1580l262 368l142 -101l-227 -267h-177zM827 -20q-212 0 -379.5 90.5t-263.5 260.5t-96 392q0 223 96 392.5t263.5 259.5t379.5 90t379 -90t263 -259.5t96 -392.5q0 -222 -96 -392t-263.5 -260.5t-378.5 -90.5zM827 255q192 0 316 126.5t124 341.5q0 214 -124 340
t-316 126t-316 -126t-124 -340q0 -215 124 -341.5t316 -126.5z" />
    <glyph glyph-name="Ocircumflex" unicode="&#xd4;" horiz-adv-x="1654" 
d="M690 1580h-177l227 299h173l227 -299h-177l-137 166zM827 -20q-212 0 -379.5 90.5t-263.5 260.5t-96 392q0 223 96 392.5t263.5 259.5t379.5 90t379 -90t263 -259.5t96 -392.5q0 -222 -96 -392t-263.5 -260.5t-378.5 -90.5zM827 255q192 0 316 126.5t124 341.5
q0 214 -124 340t-316 126t-316 -126t-124 -340q0 -215 124 -341.5t316 -126.5z" />
    <glyph glyph-name="Otilde" unicode="&#xd5;" horiz-adv-x="1654" 
d="M976 1590q-63 0 -101 21.5t-69 58.5q-3 3 -12 14.5t-12 15.5t-11 12.5t-13 11.5t-13 8t-16.5 6.5t-17.5 1.5q-41 0 -62.5 -38t-21.5 -99h-151q0 118 62 192.5t168 74.5q103 0 168 -73q6 -7 22.5 -26t24.5 -26.5t23.5 -15.5t31.5 -8q78 0 78 135h153q0 -117 -60.5 -191.5
t-170.5 -74.5zM827 -20q-212 0 -379.5 90.5t-263.5 260.5t-96 392q0 223 96 392.5t263.5 259.5t379.5 90t379 -90t263 -259.5t96 -392.5q0 -222 -96 -392t-263.5 -260.5t-378.5 -90.5zM827 255q192 0 316 126.5t124 341.5q0 214 -124 340t-316 126t-316 -126t-124 -340
q0 -215 124 -341.5t316 -126.5z" />
    <glyph glyph-name="Odieresis" unicode="&#xd6;" horiz-adv-x="1654" 
d="M612 1536q-69 0 -118 48.5t-49 117.5q0 68 49 116t118 48q67 0 116 -48t49 -116q0 -69 -49 -117.5t-116 -48.5zM1043 1536q-69 0 -118 48.5t-49 117.5q0 68 49 116t118 48q67 0 116 -48t49 -116q0 -69 -49 -117.5t-116 -48.5zM827 -20q-212 0 -379.5 90.5t-263.5 260.5
t-96 392q0 223 96 392.5t263.5 259.5t379.5 90t379 -90t263 -259.5t96 -392.5q0 -222 -96 -392t-263.5 -260.5t-378.5 -90.5zM827 255q192 0 316 126.5t124 341.5q0 214 -124 340t-316 126t-316 -126t-124 -340q0 -215 124 -341.5t316 -126.5z" />
    <glyph glyph-name="multiply" unicode="&#xd7;" horiz-adv-x="1074" 
d="M267 266l-156 156l271 271l-271 270l156 156l271 -270l269 270l156 -156l-271 -270l271 -271l-156 -155l-269 270z" />
    <glyph glyph-name="Oslash" unicode="&#xd8;" horiz-adv-x="1654" 
d="M1313 1302q120 -99 186 -247t66 -332q0 -222 -96 -392t-263.5 -260.5t-378.5 -90.5q-206 0 -373 88l-123 -176l-117 69l127 182q-120 100 -186.5 248t-66.5 332q0 223 96 392.5t263.5 259.5t379.5 90q206 0 373 -88l123 177l117 -70zM387 723q0 -211 122 -339l527 758
q-94 47 -209 47q-192 0 -316 -126t-124 -340zM827 255q192 0 316 126.5t124 341.5q0 210 -122 338l-528 -758q96 -48 210 -48z" />
    <glyph glyph-name="Ugrave" unicode="&#xd9;" horiz-adv-x="1446" 
d="M633 1580l-226 267l141 101l263 -368h-178zM722 -20q-121 0 -222.5 31.5t-178.5 94.5t-120.5 165t-43.5 235v939h300v-898q0 -156 72.5 -229t192.5 -73t193.5 73.5t73.5 228.5v898h300v-939q0 -133 -43.5 -235t-121 -165t-179 -94.5t-223.5 -31.5z" />
    <glyph glyph-name="Uacute" unicode="&#xda;" horiz-adv-x="1446" 
d="M633 1580l262 368l142 -101l-227 -267h-177zM722 -20q-121 0 -222.5 31.5t-178.5 94.5t-120.5 165t-43.5 235v939h300v-898q0 -156 72.5 -229t192.5 -73t193.5 73.5t73.5 228.5v898h300v-939q0 -133 -43.5 -235t-121 -165t-179 -94.5t-223.5 -31.5z" />
    <glyph glyph-name="Ucircumflex" unicode="&#xdb;" horiz-adv-x="1446" 
d="M585 1580h-177l227 299h173l227 -299h-177l-137 166zM722 -20q-121 0 -222.5 31.5t-178.5 94.5t-120.5 165t-43.5 235v939h300v-898q0 -156 72.5 -229t192.5 -73t193.5 73.5t73.5 228.5v898h300v-939q0 -133 -43.5 -235t-121 -165t-179 -94.5t-223.5 -31.5z" />
    <glyph glyph-name="Udieresis" unicode="&#xdc;" horiz-adv-x="1446" 
d="M507 1536q-69 0 -118 48.5t-49 117.5q0 68 49 116t118 48q67 0 116 -48t49 -116q0 -69 -49 -117.5t-116 -48.5zM938 1536q-69 0 -118 48.5t-49 117.5q0 68 49 116t118 48q67 0 116 -48t49 -116q0 -69 -49 -117.5t-116 -48.5zM722 -20q-121 0 -222.5 31.5t-178.5 94.5
t-120.5 165t-43.5 235v939h300v-898q0 -156 72.5 -229t192.5 -73t193.5 73.5t73.5 228.5v898h300v-939q0 -133 -43.5 -235t-121 -165t-179 -94.5t-223.5 -31.5z" />
    <glyph glyph-name="Yacute" unicode="&#xdd;" horiz-adv-x="1287" 
d="M959 1847l-227 -267h-177l262 368zM1271 1445l-475 -753v-692h-301v685l-478 760h332l295 -492l296 492h331z" />
    <glyph glyph-name="Thorn" unicode="&#xde;" horiz-adv-x="1239" 
d="M767 1314q171 0 290 -133t119 -325q0 -185 -119 -313t-290 -128h-290v-415h-290v1534h290v-220h290zM756 672q66 0 111.5 56.5t45.5 136.5q0 81 -45.5 136t-111.5 55h-279v-384h279z" />
    <glyph glyph-name="germandbls" unicode="&#xdf;" horiz-adv-x="1289" 
d="M149 0v962q0 135 29.5 240t77.5 170.5t116.5 108t140 59t153.5 16.5q217 0 351.5 -111t134.5 -281q0 -61 -18 -109t-44 -77t-52 -53.5t-44 -50.5t-18 -55q0 -24 14.5 -45t37.5 -39t50.5 -37.5t55 -47t50.5 -61t37.5 -86.5t14.5 -117q0 -59 -13 -113t-44 -104.5t-76 -87.5
t-113.5 -59t-153.5 -22h-199v212h116q99 0 147.5 52.5t48.5 128.5q0 52 -18 91t-44.5 60.5t-58 45.5t-58 46t-44.5 61.5t-18 92.5q0 59 18 102.5t43 70.5t50.5 51.5t43.5 59t18 79.5q0 81 -55.5 128.5t-154.5 47.5q-114 0 -175 -70.5t-61 -238.5v-1020h-286z" />
    <glyph glyph-name="agrave" unicode="&#xe0;" horiz-adv-x="1123" 
d="M654 1169h-178l-226 268l141 100zM992 279q0 -164 25 -251v-28h-269l-23 112q-55 -66 -144 -99t-186 -33q-51 0 -96 9t-86.5 30.5t-71.5 53.5t-48 81.5t-18 111.5t19 111.5t50 83.5t81 61t102 44t122 32l169 38q54 13 76.5 32.5t22.5 51.5q0 69 -50.5 99t-122.5 30
q-177 0 -201 -157l-255 46q32 159 149 234.5t323 75.5q432 0 432 -371v-398zM485 175q109 0 178 74.5t69 220.5l-244 -69q-67 -16 -102.5 -42t-35.5 -74q0 -53 38 -81.5t97 -28.5z" />
    <glyph glyph-name="aacute" unicode="&#xe1;" horiz-adv-x="1123" 
d="M880 1437l-227 -268h-177l262 368zM992 279q0 -164 25 -251v-28h-269l-23 112q-55 -66 -144 -99t-186 -33q-51 0 -96 9t-86.5 30.5t-71.5 53.5t-48 81.5t-18 111.5t19 111.5t50 83.5t81 61t102 44t122 32l169 38q54 13 76.5 32.5t22.5 51.5q0 69 -50.5 99t-122.5 30
q-177 0 -201 -157l-255 46q32 159 149 234.5t323 75.5q432 0 432 -371v-398zM485 175q109 0 178 74.5t69 220.5l-244 -69q-67 -16 -102.5 -42t-35.5 -74q0 -53 38 -81.5t97 -28.5z" />
    <glyph glyph-name="acircumflex" unicode="&#xe2;" horiz-adv-x="1123" 
d="M564 1372l-136 -166h-177l227 299h173l227 -299h-177zM992 279q0 -164 25 -251v-28h-269l-23 112q-55 -66 -144 -99t-186 -33q-51 0 -96 9t-86.5 30.5t-71.5 53.5t-48 81.5t-18 111.5t19 111.5t50 83.5t81 61t102 44t122 32l169 38q54 13 76.5 32.5t22.5 51.5
q0 69 -50.5 99t-122.5 30q-177 0 -201 -157l-255 46q32 159 149 234.5t323 75.5q432 0 432 -371v-398zM485 175q109 0 178 74.5t69 220.5l-244 -69q-67 -16 -102.5 -42t-35.5 -74q0 -53 38 -81.5t97 -28.5z" />
    <glyph glyph-name="atilde" unicode="&#xe3;" horiz-adv-x="1123" 
d="M465 1303q-34 0 -52 -35t-18 -93h-137q0 116 54.5 189t147.5 73q112 0 175 -103q24 -38 60 -38q67 0 67 128h138q0 -115 -53.5 -188.5t-148.5 -73.5q-111 0 -176 102q-25 39 -57 39zM992 279q0 -164 25 -251v-28h-269l-23 112q-55 -66 -144 -99t-186 -33q-51 0 -96 9
t-86.5 30.5t-71.5 53.5t-48 81.5t-18 111.5t19 111.5t50 83.5t81 61t102 44t122 32l169 38q54 13 76.5 32.5t22.5 51.5q0 69 -50.5 99t-122.5 30q-177 0 -201 -157l-255 46q32 159 149 234.5t323 75.5q432 0 432 -371v-398zM485 175q109 0 178 74.5t69 220.5l-244 -69
q-67 -16 -102.5 -42t-35.5 -74q0 -53 38 -81.5t97 -28.5z" />
    <glyph glyph-name="adieresis" unicode="&#xe4;" horiz-adv-x="1123" 
d="M350 1182q-69 0 -118 48.5t-49 117.5q0 68 49.5 116.5t117.5 48.5q67 0 116 -48.5t49 -116.5q0 -69 -49 -117.5t-116 -48.5zM781 1182q-69 0 -118 48.5t-49 117.5q0 68 49 116.5t118 48.5q67 0 116 -48.5t49 -116.5q0 -69 -49 -117.5t-116 -48.5zM992 279q0 -164 25 -251
v-28h-269l-23 112q-55 -66 -144 -99t-186 -33q-51 0 -96 9t-86.5 30.5t-71.5 53.5t-48 81.5t-18 111.5t19 111.5t50 83.5t81 61t102 44t122 32l169 38q54 13 76.5 32.5t22.5 51.5q0 69 -50.5 99t-122.5 30q-177 0 -201 -157l-255 46q32 159 149 234.5t323 75.5
q432 0 432 -371v-398zM485 175q109 0 178 74.5t69 220.5l-244 -69q-67 -16 -102.5 -42t-35.5 -74q0 -53 38 -81.5t97 -28.5z" />
    <glyph glyph-name="aring" unicode="&#xe5;" horiz-adv-x="1123" 
d="M565 1140q-100 0 -170.5 71t-70.5 170q0 97 71 167t170 70q97 0 167 -70t70 -167q0 -99 -70 -170t-167 -71zM565 1501q-49 0 -82.5 -36t-33.5 -84q0 -53 33 -86t83 -33t84 33.5t34 85.5q0 48 -34.5 84t-83.5 36zM992 279q0 -164 25 -251v-28h-269l-23 112
q-55 -66 -144 -99t-186 -33q-51 0 -96 9t-86.5 30.5t-71.5 53.5t-48 81.5t-18 111.5t19 111.5t50 83.5t81 61t102 44t122 32l169 38q54 13 76.5 32.5t22.5 51.5q0 69 -50.5 99t-122.5 30q-177 0 -201 -157l-255 46q32 159 149 234.5t323 75.5q432 0 432 -371v-398zM485 175
q109 0 178 74.5t69 220.5l-244 -69q-67 -16 -102.5 -42t-35.5 -74q0 -53 38 -81.5t97 -28.5z" />
    <glyph glyph-name="ae" unicode="&#xe6;" horiz-adv-x="1817" 
d="M1748 529l-3 -77h-761q11 -119 83.5 -182t180.5 -63q76 0 133.5 35.5t87.5 103.5l264 -39q-53 -158 -181.5 -242.5t-310.5 -84.5q-271 0 -418 169h-4q-166 -169 -409 -169q-95 0 -167.5 26.5t-119 91.5t-46.5 162q0 66 23 118t57.5 85.5t90.5 59.5t106.5 40.5t120.5 28.5
l145 29q53 12 76 34t23 58q0 72 -51 104t-126 32q-180 0 -199 -171l-257 42q30 168 147 248t328 80q228 0 329 -105q141 107 351 107q228 0 367 -131t140 -390zM1233 849q-94 0 -157 -49t-84 -149h472q-12 96 -72 147t-159 51zM491 203q68 0 131.5 37t99.5 99
q-16 55 -21 120l-190 -43q-77 -16 -114.5 -42.5t-37.5 -72.5q0 -48 36.5 -73t95.5 -25z" />
    <glyph glyph-name="ccedilla" unicode="&#xe7;" horiz-adv-x="1175" 
d="M611 209q93 0 155.5 45t86.5 135l266 -29q-35 -169 -158.5 -268t-301.5 -110l-60 -105q30 6 45 6q85 0 140.5 -54t55.5 -138q0 -94 -64.5 -158.5t-158.5 -64.5q-85 0 -149.5 43t-89.5 108l127 44q15 -29 44.5 -46.5t61.5 -17.5q39 0 66.5 25.5t27.5 66.5q0 43 -27.5 67
t-68.5 24q-46 0 -74 -31l-105 62l95 174q-208 27 -335 170t-127 358q0 239 153.5 386t397.5 147q198 0 333 -99t172 -279l-266 -29q-23 90 -86 135t-156 45q-116 0 -188 -84t-72 -222q0 -137 72 -221.5t188 -84.5z" />
    <glyph glyph-name="egrave" unicode="&#xe8;" horiz-adv-x="1186" 
d="M705 1172h-178l-226 268l141 100zM1116 529l-3 -69h-762q9 -123 82 -188t181 -65q78 0 135.5 35.5t86.5 103.5l264 -39q-51 -155 -180 -241t-304 -86q-252 0 -400.5 141.5t-148.5 392.5q0 249 149 392.5t391 143.5q230 0 369 -131t140 -390zM609 846q-210 0 -250 -198
h472q-11 96 -71 147t-151 51z" />
    <glyph glyph-name="eacute" unicode="&#xe9;" horiz-adv-x="1186" 
d="M931 1440l-227 -268h-177l262 368zM1116 529l-3 -69h-762q9 -123 82 -188t181 -65q78 0 135.5 35.5t86.5 103.5l264 -39q-51 -155 -180 -241t-304 -86q-252 0 -400.5 141.5t-148.5 392.5q0 249 149 392.5t391 143.5q230 0 369 -131t140 -390zM609 846q-210 0 -250 -198
h472q-11 96 -71 147t-151 51z" />
    <glyph glyph-name="ecircumflex" unicode="&#xea;" horiz-adv-x="1186" 
d="M615 1375l-136 -166h-177l227 299h173l227 -299h-177zM1116 529l-3 -69h-762q9 -123 82 -188t181 -65q78 0 135.5 35.5t86.5 103.5l264 -39q-51 -155 -180 -241t-304 -86q-252 0 -400.5 141.5t-148.5 392.5q0 249 149 392.5t391 143.5q230 0 369 -131t140 -390zM609 846
q-210 0 -250 -198h472q-11 96 -71 147t-151 51z" />
    <glyph glyph-name="edieresis" unicode="&#xeb;" horiz-adv-x="1186" 
d="M401 1185q-69 0 -118 48.5t-49 117.5q0 68 49.5 116.5t117.5 48.5q67 0 116 -48.5t49 -116.5q0 -69 -49 -117.5t-116 -48.5zM832 1185q-69 0 -118 48.5t-49 117.5q0 68 49 116.5t118 48.5q67 0 116 -48.5t49 -116.5q0 -69 -49 -117.5t-116 -48.5zM1116 529l-3 -69h-762
q9 -123 82 -188t181 -65q78 0 135.5 35.5t86.5 103.5l264 -39q-51 -155 -180 -241t-304 -86q-252 0 -400.5 141.5t-148.5 392.5q0 249 149 392.5t391 143.5q230 0 369 -131t140 -390zM609 846q-210 0 -250 -198h472q-11 96 -71 147t-151 51z" />
    <glyph glyph-name="igrave" unicode="&#xec;" horiz-adv-x="588" 
d="M206 1169l-226 268l141 100l263 -368h-178zM149 0v1028h290v-1028h-290z" />
    <glyph glyph-name="iacute" unicode="&#xed;" horiz-adv-x="588" 
d="M206 1169l262 368l142 -100l-227 -268h-177zM149 0v1028h290v-1028h-290z" />
    <glyph glyph-name="icircumflex" unicode="&#xee;" horiz-adv-x="588" 
d="M158 1206h-177l227 299h173l227 -299h-177l-137 166zM149 0v1028h290v-1028h-290z" />
    <glyph glyph-name="idieresis" unicode="&#xef;" horiz-adv-x="588" 
d="M80 1182q-69 0 -118 48.5t-49 117.5q0 68 49.5 116.5t117.5 48.5q67 0 116 -48.5t49 -116.5q0 -69 -49 -117.5t-116 -48.5zM511 1182q-69 0 -118 48.5t-49 117.5q0 68 49 116.5t118 48.5q67 0 116 -48.5t49 -116.5q0 -69 -49 -117.5t-116 -48.5zM149 0v1028h290v-1028
h-290z" />
    <glyph glyph-name="eth" unicode="&#xf0;" horiz-adv-x="1187" 
d="M999 874q127 -183 127 -367q-1 -149 -70.5 -269.5t-190.5 -188.5t-268 -68q-106 0 -203.5 39t-170.5 107.5t-116.5 168t-43.5 212.5q0 228 124.5 366.5t319.5 164.5q34 3 70 -2l-139 191l-242 -62l-23 85l209 53l-169 232h321l115 -164l214 55l23 -85l-183 -47zM606 238
q116 0 184 77t67 203q-1 120 -72 200.5t-183 80.5q-116 0 -186 -78.5t-70 -205.5q0 -124 73 -200.5t187 -76.5z" />
    <glyph glyph-name="ntilde" unicode="&#xf1;" horiz-adv-x="1269" 
d="M531 1303q-34 0 -52 -35t-18 -93h-137q0 116 54.5 189t147.5 73q112 0 175 -103q24 -38 60 -38q67 0 67 128h138q0 -115 -53.5 -188.5t-148.5 -73.5q-111 0 -176 102q-25 39 -57 39zM756 1048q185 0 284 -92.5t99 -263.5v-692h-289v630q0 97 -51.5 142t-132.5 45
q-47 0 -86 -13t-72 -40.5t-51.5 -77.5t-19.5 -119v-567h-288v1028h288v-114q114 134 319 134z" />
    <glyph glyph-name="ograve" unicode="&#xf2;" horiz-adv-x="1257" 
d="M539 1168l-226 268l141 100l263 -368h-178zM628 -20q-164 0 -291 63t-199.5 185t-72.5 287q0 247 156 390t407 143q252 0 408 -143t156 -390q0 -248 -156 -391.5t-408 -143.5zM625 209q126 0 203.5 84t77.5 222t-77.5 222t-203.5 84q-121 0 -197.5 -84.5t-76.5 -221.5
t76.5 -221.5t197.5 -84.5z" />
    <glyph glyph-name="oacute" unicode="&#xf3;" horiz-adv-x="1257" 
d="M539 1168l262 368l142 -100l-227 -268h-177zM628 -20q-164 0 -291 63t-199.5 185t-72.5 287q0 247 156 390t407 143q252 0 408 -143t156 -390q0 -248 -156 -391.5t-408 -143.5zM625 209q126 0 203.5 84t77.5 222t-77.5 222t-203.5 84q-121 0 -197.5 -84.5t-76.5 -221.5
t76.5 -221.5t197.5 -84.5z" />
    <glyph glyph-name="ocircumflex" unicode="&#xf4;" horiz-adv-x="1257" 
d="M491 1205h-177l227 299h173l227 -299h-177l-137 166zM628 -20q-164 0 -291 63t-199.5 185t-72.5 287q0 247 156 390t407 143q252 0 408 -143t156 -390q0 -248 -156 -391.5t-408 -143.5zM625 209q126 0 203.5 84t77.5 222t-77.5 222t-203.5 84q-121 0 -197.5 -84.5
t-76.5 -221.5t76.5 -221.5t197.5 -84.5z" />
    <glyph glyph-name="otilde" unicode="&#xf5;" horiz-adv-x="1257" 
d="M761 1161q-111 0 -176 102q-25 39 -57 39q-34 0 -52 -35t-18 -93h-137q0 116 54.5 189t147.5 73q112 0 175 -103q24 -38 60 -38q67 0 67 128h138q0 -115 -53.5 -188.5t-148.5 -73.5zM628 -20q-164 0 -291 63t-199.5 185t-72.5 287q0 247 156 390t407 143q252 0 408 -143
t156 -390q0 -248 -156 -391.5t-408 -143.5zM625 209q126 0 203.5 84t77.5 222t-77.5 222t-203.5 84q-121 0 -197.5 -84.5t-76.5 -221.5t76.5 -221.5t197.5 -84.5z" />
    <glyph glyph-name="odieresis" unicode="&#xf6;" horiz-adv-x="1257" 
d="M413 1181q-69 0 -118 48.5t-49 117.5q0 68 49.5 116.5t117.5 48.5q67 0 116 -48.5t49 -116.5q0 -69 -49 -117.5t-116 -48.5zM844 1181q-69 0 -118 48.5t-49 117.5q0 68 49 116.5t118 48.5q67 0 116 -48.5t49 -116.5q0 -69 -49 -117.5t-116 -48.5zM628 -20q-164 0 -291 63
t-199.5 185t-72.5 287q0 247 156 390t407 143q252 0 408 -143t156 -390q0 -248 -156 -391.5t-408 -143.5zM625 209q126 0 203.5 84t77.5 222t-77.5 222t-203.5 84q-121 0 -197.5 -84.5t-76.5 -221.5t76.5 -221.5t197.5 -84.5z" />
    <glyph glyph-name="divide" unicode="&#xf7;" horiz-adv-x="1084" 
d="M533 930q-59 0 -103.5 43.5t-44.5 105.5q0 59 44.5 104t103.5 45q60 0 105 -45t45 -104q0 -62 -44.5 -105.5t-105.5 -43.5zM100 591v219h883v-219h-883zM533 173q-59 0 -103.5 43.5t-44.5 105.5q0 59 44.5 104t103.5 45q60 0 105 -45t45 -104q0 -62 -44.5 -105.5
t-105.5 -43.5z" />
    <glyph glyph-name="oslash" unicode="&#xf8;" horiz-adv-x="1257" 
d="M1001 935q191 -146 191 -420q0 -248 -156 -391.5t-408 -143.5q-142 0 -258 49l-89 -128l-115 69l88 126q-90 70 -139.5 177t-49.5 242q0 247 156 390t407 143q142 0 256 -47l88 126l115 -69zM351 515q0 -116 57 -198l335 481q-54 23 -118 23q-121 0 -197.5 -84.5
t-76.5 -221.5zM625 209q126 0 203.5 84t77.5 222q0 118 -59 199l-335 -482q52 -23 113 -23z" />
    <glyph glyph-name="ugrave" unicode="&#xf9;" horiz-adv-x="1267" 
d="M724 1169h-178l-226 268l141 100zM830 1028h288v-1028h-273l-7 124q-114 -144 -327 -144q-185 0 -284 92.5t-99 263.5v692h289v-630q0 -96 51.5 -141t133.5 -45q100 0 163.5 58.5t64.5 190.5v567z" />
    <glyph glyph-name="uacute" unicode="&#xfa;" horiz-adv-x="1267" 
d="M950 1437l-227 -268h-177l262 368zM830 1028h288v-1028h-273l-7 124q-114 -144 -327 -144q-185 0 -284 92.5t-99 263.5v692h289v-630q0 -96 51.5 -141t133.5 -45q100 0 163.5 58.5t64.5 190.5v567z" />
    <glyph glyph-name="ucircumflex" unicode="&#xfb;" horiz-adv-x="1267" 
d="M634 1372l-136 -166h-177l227 299h173l227 -299h-177zM830 1028h288v-1028h-273l-7 124q-114 -144 -327 -144q-185 0 -284 92.5t-99 263.5v692h289v-630q0 -96 51.5 -141t133.5 -45q100 0 163.5 58.5t64.5 190.5v567z" />
    <glyph glyph-name="udieresis" unicode="&#xfc;" horiz-adv-x="1267" 
d="M420 1182q-69 0 -118 48.5t-49 117.5q0 68 49.5 116.5t117.5 48.5q67 0 116 -48.5t49 -116.5q0 -69 -49 -117.5t-116 -48.5zM851 1182q-69 0 -118 48.5t-49 117.5q0 68 49 116.5t118 48.5q67 0 116 -48.5t49 -116.5q0 -69 -49 -117.5t-116 -48.5zM830 1028h288v-1028
h-273l-7 124q-114 -144 -327 -144q-185 0 -284 92.5t-99 263.5v692h289v-630q0 -96 51.5 -141t133.5 -45q100 0 163.5 58.5t64.5 190.5v567z" />
    <glyph glyph-name="yacute" unicode="&#xfd;" horiz-adv-x="1120" 
d="M876 1437l-227 -268h-177l262 368zM822 1028h295l-634 -1512h-292l235 526l-423 986h314l245 -676z" />
    <glyph glyph-name="thorn" unicode="&#xfe;" horiz-adv-x="1315" 
d="M752 1048q102 0 192 -37t157.5 -104t106.5 -169.5t39 -225.5t-39 -225.5t-106.5 -169.5t-157.5 -104t-192 -37t-186 38t-129 108v-622h-288v2036h288v-633q45 69 129 107t186 38zM687 215q117 0 194.5 80.5t77.5 216.5t-77.5 216.5t-194.5 80.5q-118 0 -196 -82t-78 -215
t78 -215t196 -82z" />
    <glyph glyph-name="ydieresis" unicode="&#xff;" horiz-adv-x="1120" 
d="M346 1182q-69 0 -118 48.5t-49 117.5q0 68 49.5 116.5t117.5 48.5q67 0 116 -48.5t49 -116.5q0 -69 -49 -117.5t-116 -48.5zM777 1182q-69 0 -118 48.5t-49 117.5q0 68 49 116.5t118 48.5q67 0 116 -48.5t49 -116.5q0 -69 -49 -117.5t-116 -48.5zM822 1028h295
l-634 -1512h-292l235 526l-423 986h314l245 -676z" />
    <glyph glyph-name="Amacron" unicode="&#x100;" horiz-adv-x="1491" 
d="M1078 1750v-170h-664v170h664zM1154 0l-105 298h-607l-105 -298h-307l532 1445h367l532 -1445h-307zM530 549h431l-215 613z" />
    <glyph glyph-name="amacron" unicode="&#x101;" horiz-adv-x="1123" 
d="M897 1367v-170h-664v170h664zM992 279q0 -164 25 -251v-28h-269l-23 112q-55 -66 -144 -99t-186 -33q-51 0 -96 9t-86.5 30.5t-71.5 53.5t-48 81.5t-18 111.5t19 111.5t50 83.5t81 61t102 44t122 32l169 38q54 13 76.5 32.5t22.5 51.5q0 69 -50.5 99t-122.5 30
q-177 0 -201 -157l-255 46q32 159 149 234.5t323 75.5q432 0 432 -371v-398zM485 175q109 0 178 74.5t69 220.5l-244 -69q-67 -16 -102.5 -42t-35.5 -74q0 -53 38 -81.5t97 -28.5z" />
    <glyph glyph-name="Abreve" unicode="&#x102;" horiz-adv-x="1491" 
d="M745 1580q-364 0 -364 295h166q0 -81 52.5 -121t145.5 -40q95 0 147.5 39.5t52.5 121.5h166q0 -295 -366 -295zM1154 0l-105 298h-607l-105 -298h-307l532 1445h367l532 -1445h-307zM530 549h431l-215 613z" />
    <glyph glyph-name="abreve" unicode="&#x103;" horiz-adv-x="1123" 
d="M565 1154q-166 0 -265 90.5t-99 260.5h180q0 -97 48 -156.5t136 -59.5q89 0 137 59t48 157h181q0 -170 -99.5 -260.5t-266.5 -90.5zM992 279q0 -164 25 -251v-28h-269l-23 112q-55 -66 -144 -99t-186 -33q-51 0 -96 9t-86.5 30.5t-71.5 53.5t-48 81.5t-18 111.5t19 111.5
t50 83.5t81 61t102 44t122 32l169 38q54 13 76.5 32.5t22.5 51.5q0 69 -50.5 99t-122.5 30q-177 0 -201 -157l-255 46q32 159 149 234.5t323 75.5q432 0 432 -371v-398zM485 175q109 0 178 74.5t69 220.5l-244 -69q-67 -16 -102.5 -42t-35.5 -74q0 -53 38 -81.5t97 -28.5z
" />
    <glyph glyph-name="Aogonek" unicode="&#x104;" horiz-adv-x="1491" 
d="M1289 -220q0 -36 60 -36q28 0 60 11t52 29v-182q-65 -27 -144 -27q-86 0 -139.5 28t-53.5 81q0 111 217 316h-187l-105 298h-607l-105 -298h-307l532 1445h367l532 -1445q-172 -155 -172 -220zM530 549h431l-215 613z" />
    <glyph glyph-name="aogonek" unicode="&#x105;" horiz-adv-x="1123" 
d="M1017 0q-172 -155 -172 -220q0 -36 60 -36q28 0 60 11t52 29v-182q-65 -27 -144 -27q-86 0 -139.5 28t-53.5 81q0 111 217 316h-149l-23 112q-55 -66 -144 -99t-186 -33q-51 0 -96 9t-86.5 30.5t-71.5 53.5t-48 81.5t-18 111.5t19 111.5t50 83.5t81 61t102 44t122 32
l169 38q54 13 76.5 32.5t22.5 51.5q0 69 -50.5 99t-122.5 30q-177 0 -201 -157l-255 46q32 159 149 234.5t323 75.5q432 0 432 -371v-398q0 -164 25 -251v-28zM485 175q109 0 178 74.5t69 220.5l-244 -69q-67 -16 -102.5 -42t-35.5 -74q0 -53 38 -81.5t97 -28.5z" />
    <glyph glyph-name="Cacute" unicode="&#x106;" horiz-adv-x="1569" 
d="M740 1580l262 368l142 -101l-227 -267h-177zM827 -20q-158 0 -294.5 53t-234.5 148t-154 235t-56 307q0 223 96 392.5t263.5 259.5t379.5 90q242 0 424 -117t259 -322l-280 -102q-48 125 -155 195t-248 70q-192 0 -316 -126t-124 -340t124.5 -340.5t315.5 -126.5
q140 0 247.5 70.5t155.5 195.5l280 -102q-77 -205 -259 -322.5t-424 -117.5z" />
    <glyph glyph-name="cacute" unicode="&#x107;" horiz-adv-x="1175" 
d="M511 1169l262 368l142 -100l-227 -268h-177zM614 -19q-243 0 -397 148t-154 386q0 239 153.5 386t397.5 147q198 0 333 -99t172 -279l-266 -29q-23 90 -86 135t-156 45q-116 0 -188 -84t-72 -222q0 -137 72 -221.5t188 -84.5q93 0 155.5 45t86.5 135l266 -29
q-37 -179 -173.5 -279t-331.5 -100z" />
    <glyph glyph-name="Cdotaccent" unicode="&#x10a;" horiz-adv-x="1569" 
d="M830 1536q-69 0 -118 48.5t-49 117.5q0 68 49 116t118 48q67 0 116 -48t49 -116q0 -69 -49 -117.5t-116 -48.5zM827 -20q-158 0 -294.5 53t-234.5 148t-154 235t-56 307q0 223 96 392.5t263.5 259.5t379.5 90q242 0 424 -117t259 -322l-280 -102q-48 125 -155 195
t-248 70q-192 0 -316 -126t-124 -340t124.5 -340.5t315.5 -126.5q140 0 247.5 70.5t155.5 195.5l280 -102q-77 -205 -259 -322.5t-424 -117.5z" />
    <glyph glyph-name="cdotaccent" unicode="&#x10b;" horiz-adv-x="1175" 
d="M601 1182q-69 0 -118 48.5t-49 117.5q0 68 49.5 116.5t117.5 48.5q67 0 116 -48.5t49 -116.5q0 -69 -49 -117.5t-116 -48.5zM614 -19q-243 0 -397 148t-154 386q0 239 153.5 386t397.5 147q198 0 333 -99t172 -279l-266 -29q-23 90 -86 135t-156 45q-116 0 -188 -84
t-72 -222q0 -137 72 -221.5t188 -84.5q93 0 155.5 45t86.5 135l266 -29q-37 -179 -173.5 -279t-331.5 -100z" />
    <glyph glyph-name="Ccaron" unicode="&#x10c;" horiz-adv-x="1569" 
d="M742 1580l-227 299h177l137 -167l136 167h178l-227 -299h-174zM827 -20q-158 0 -294.5 53t-234.5 148t-154 235t-56 307q0 223 96 392.5t263.5 259.5t379.5 90q242 0 424 -117t259 -322l-280 -102q-48 125 -155 195t-248 70q-192 0 -316 -126t-124 -340t124.5 -340.5
t315.5 -126.5q140 0 247.5 70.5t155.5 195.5l280 -102q-77 -205 -259 -322.5t-424 -117.5z" />
    <glyph glyph-name="ccaron" unicode="&#x10d;" horiz-adv-x="1175" 
d="M513 1206l-227 299h177l137 -167l136 167h178l-227 -299h-174zM614 -19q-243 0 -397 148t-154 386q0 239 153.5 386t397.5 147q198 0 333 -99t172 -279l-266 -29q-23 90 -86 135t-156 45q-116 0 -188 -84t-72 -222q0 -137 72 -221.5t188 -84.5q93 0 155.5 45t86.5 135
l266 -29q-37 -179 -173.5 -279t-331.5 -100z" />
    <glyph glyph-name="Dcaron" unicode="&#x10e;" horiz-adv-x="1493" 
d="M548 1580l-227 299h177l137 -167l136 167h178l-227 -299h-174zM187 0v1445h523q170 0 301.5 -52t216 -147.5t128 -227.5t43.5 -295q0 -164 -43.5 -296t-128 -227.5t-216 -147.5t-301.5 -52h-523zM487 265h208q196 0 292 117.5t96 340.5t-96 340.5t-292 117.5h-208v-916z
" />
    <glyph glyph-name="dcaron" unicode="&#x10f;" horiz-adv-x="1540" 
d="M526 -20q-198 0 -326 145.5t-128 391.5t128 391t326 145q101 0 186.5 -42t143.5 -119l1 644h287v-1536h-288v141q-58 -77 -143.5 -119t-186.5 -42zM1286 882l126 654h296l-216 -654h-206zM629 219q114 0 189.5 82.5t75.5 215.5t-76 215t-189 82q-117 0 -193 -81t-76 -216
q0 -136 76 -217t193 -81z" />
    <glyph glyph-name="Dcroat" unicode="&#x110;" horiz-adv-x="1493" 
d="M710 1445q170 0 301.5 -52t216 -147.5t128 -227.5t43.5 -295q0 -164 -43.5 -296t-128 -227.5t-216 -147.5t-301.5 -52h-523v635h-154v176h154v634h523zM695 265q196 0 292 117.5t96 340.5t-96 340.5t-292 117.5h-208v-370h235v-176h-235v-370h208z" />
    <glyph glyph-name="dcroat" unicode="&#x111;" horiz-adv-x="1315" 
d="M1304 1364v-176h-138v-1188h-273l-7 134q-44 -75 -130.5 -116.5t-192.5 -41.5q-102 0 -192 37t-157.5 104.5t-106.5 169.5t-39 225q0 163 68 286.5t179.5 186.5t247.5 63q103 0 186.5 -37.5t128.5 -106.5v284h-263v176h263v172h288v-172h138zM629 215q117 0 194.5 82
t77.5 215t-78 215.5t-194 82.5q-118 0 -195.5 -81t-77.5 -217q0 -135 77.5 -216t195.5 -81z" />
    <glyph glyph-name="Emacron" unicode="&#x112;" horiz-adv-x="1147" 
d="M945 1750v-170h-664v170h664zM1025 1181h-536v-328h475v-261h-475v-327h536v-265h-838v1445h838v-264z" />
    <glyph glyph-name="emacron" unicode="&#x113;" horiz-adv-x="1186" 
d="M948 1370v-170h-664v170h664zM1116 529l-3 -69h-762q9 -123 82 -188t181 -65q78 0 135.5 35.5t86.5 103.5l264 -39q-51 -155 -180 -241t-304 -86q-252 0 -400.5 141.5t-148.5 392.5q0 249 149 392.5t391 143.5q230 0 369 -131t140 -390zM609 846q-210 0 -250 -198h472
q-11 96 -71 147t-151 51z" />
    <glyph glyph-name="Edotaccent" unicode="&#x116;" horiz-adv-x="1147" 
d="M614 1536q-69 0 -118 48.5t-49 117.5q0 68 49 116t118 48q67 0 116 -48t49 -116q0 -69 -49 -117.5t-116 -48.5zM1025 1181h-536v-328h475v-261h-475v-327h536v-265h-838v1445h838v-264z" />
    <glyph glyph-name="edotaccent" unicode="&#x117;" horiz-adv-x="1186" 
d="M617 1185q-69 0 -118 48.5t-49 117.5q0 68 49.5 116.5t117.5 48.5q67 0 116 -48.5t49 -116.5q0 -69 -49 -117.5t-116 -48.5zM1116 529l-3 -69h-762q9 -123 82 -188t181 -65q78 0 135.5 35.5t86.5 103.5l264 -39q-51 -155 -180 -241t-304 -86q-252 0 -400.5 141.5
t-148.5 392.5q0 249 149 392.5t391 143.5q230 0 369 -131t140 -390zM609 846q-210 0 -250 -198h472q-11 96 -71 147t-151 51z" />
    <glyph glyph-name="Eogonek" unicode="&#x118;" horiz-adv-x="1147" 
d="M1025 1181h-536v-328h475v-261h-475v-327h536v-265q-172 -155 -172 -220q0 -36 60 -36q28 0 60 11t52 29v-182q-65 -27 -144 -27q-86 0 -139.5 28t-53.5 81q0 111 217 316h-718v1445h838v-264z" />
    <glyph glyph-name="eogonek" unicode="&#x119;" horiz-adv-x="1186" 
d="M1116 529l-3 -69h-762q9 -123 82 -188t181 -65q78 0 135.5 35.5t86.5 103.5l264 -39q-30 -92 -89 -160l2 -1l-15 -13q-20 -21 -38 -37q-119 -117 -119 -170q0 -36 60 -36q28 0 60 11t52 29v-182q-65 -27 -144 -27q-86 0 -139.5 28t-53.5 81q0 65 77 165q-65 -15 -137 -15
q-252 0 -400.5 141.5t-148.5 392.5q0 249 149 392.5t391 143.5q230 0 369 -131t140 -390zM609 846q-210 0 -250 -198h472q-11 96 -71 147t-151 51z" />
    <glyph glyph-name="Ecaron" unicode="&#x11a;" horiz-adv-x="1147" 
d="M700 1580h-174l-227 299h177l137 -167l136 167h178zM1025 1181h-536v-328h475v-261h-475v-327h536v-265h-838v1445h838v-264z" />
    <glyph glyph-name="ecaron" unicode="&#x11b;" horiz-adv-x="1186" 
d="M703 1209h-174l-227 299h177l137 -167l136 167h178zM1116 529l-3 -69h-762q9 -123 82 -188t181 -65q78 0 135.5 35.5t86.5 103.5l264 -39q-51 -155 -180 -241t-304 -86q-252 0 -400.5 141.5t-148.5 392.5q0 249 149 392.5t391 143.5q230 0 369 -131t140 -390zM609 846
q-210 0 -250 -198h472q-11 96 -71 147t-151 51z" />
    <glyph glyph-name="Gbreve" unicode="&#x11e;" horiz-adv-x="1642" 
d="M820 1580q-364 0 -364 295h166q0 -81 52.5 -121t145.5 -40q95 0 147.5 39.5t52.5 121.5h166q0 -295 -366 -295zM812 -20q-155 0 -288.5 52.5t-230 147.5t-151 234t-54.5 305q0 168 56 308.5t154 236t234.5 148.5t294.5 53q209 0 375.5 -88.5t260.5 -251.5l-263 -140
q-56 109 -152.5 164t-220.5 55q-193 0 -315.5 -127t-122.5 -351q0 -221 122 -353t327 -132q96 0 176 31t140 100.5t80 171.5h-395v241h679v-785h-236v200q-149 -220 -470 -220z" />
    <glyph glyph-name="gbreve" unicode="&#x11f;" horiz-adv-x="1281" 
d="M626 1154q-166 0 -265 90.5t-99 260.5h180q0 -97 48 -156.5t136 -59.5q89 0 137 59t48 157h181q0 -170 -99.5 -260.5t-266.5 -90.5zM857 1028h274v-951q0 -147 -38.5 -256t-111.5 -175.5t-171 -98.5t-224 -32q-407 0 -530 319l239 102q44 -101 111 -149t169 -48
q267 0 267 317v120q-46 -63 -129.5 -101.5t-182.5 -38.5q-95 0 -180.5 36.5t-149.5 102t-101.5 161.5t-37.5 208q0 113 37.5 208.5t102 159.5t150 100t181.5 36q106 0 190.5 -42.5t127.5 -113.5zM604 269q112 0 189 80t77 195q0 116 -76.5 196t-189.5 80
q-114 0 -189.5 -78.5t-75.5 -197.5q0 -117 76.5 -196t188.5 -79z" />
    <glyph glyph-name="Gdotaccent" unicode="&#x120;" horiz-adv-x="1642" 
d="M822 1536q-69 0 -118 48.5t-49 117.5q0 68 49 116t118 48q67 0 116 -48t49 -116q0 -69 -49 -117.5t-116 -48.5zM812 -20q-155 0 -288.5 52.5t-230 147.5t-151 234t-54.5 305q0 168 56 308.5t154 236t234.5 148.5t294.5 53q209 0 375.5 -88.5t260.5 -251.5l-263 -140
q-56 109 -152.5 164t-220.5 55q-193 0 -315.5 -127t-122.5 -351q0 -221 122 -353t327 -132q96 0 176 31t140 100.5t80 171.5h-395v241h679v-785h-236v200q-149 -220 -470 -220z" />
    <glyph glyph-name="gdotaccent" unicode="&#x121;" horiz-adv-x="1281" 
d="M627 1182q-69 0 -118 48.5t-49 117.5q0 68 49.5 116.5t117.5 48.5q67 0 116 -48.5t49 -116.5q0 -69 -49 -117.5t-116 -48.5zM857 1028h274v-951q0 -147 -38.5 -256t-111.5 -175.5t-171 -98.5t-224 -32q-407 0 -530 319l239 102q44 -101 111 -149t169 -48q267 0 267 317
v120q-46 -63 -129.5 -101.5t-182.5 -38.5q-95 0 -180.5 36.5t-149.5 102t-101.5 161.5t-37.5 208q0 113 37.5 208.5t102 159.5t150 100t181.5 36q106 0 190.5 -42.5t127.5 -113.5zM604 269q112 0 189 80t77 195q0 116 -76.5 196t-189.5 80q-114 0 -189.5 -78.5t-75.5 -197.5
q0 -117 76.5 -196t188.5 -79z" />
    <glyph glyph-name="Gcommaaccent" unicode="&#x122;" horiz-adv-x="1642" 
d="M812 -20q-155 0 -288.5 52.5t-230 147.5t-151 234t-54.5 305q0 168 56 308.5t154 236t234.5 148.5t294.5 53q209 0 375.5 -88.5t260.5 -251.5l-263 -140q-56 109 -152.5 164t-220.5 55q-193 0 -315.5 -127t-122.5 -351q0 -221 122 -353t327 -132q96 0 176 31t140 100.5
t80 171.5h-395v241h679v-785h-236v200q-149 -220 -470 -220zM668 -574l-141 66l168 373h251z" />
    <glyph glyph-name="gcommaaccent" unicode="&#x123;" horiz-adv-x="1281" 
d="M843 1502l-125 -327h-296l215 327h206zM857 1028h274v-951q0 -147 -38.5 -256t-111.5 -175.5t-171 -98.5t-224 -32q-407 0 -530 319l239 102q44 -101 111 -149t169 -48q267 0 267 317v120q-46 -63 -129.5 -101.5t-182.5 -38.5q-95 0 -180.5 36.5t-149.5 102t-101.5 161.5
t-37.5 208q0 113 37.5 208.5t102 159.5t150 100t181.5 36q106 0 190.5 -42.5t127.5 -113.5zM604 269q112 0 189 80t77 195q0 116 -76.5 196t-189.5 80q-114 0 -189.5 -78.5t-75.5 -197.5q0 -117 76.5 -196t188.5 -79z" />
    <glyph glyph-name="Hbar" unicode="&#x126;" horiz-adv-x="1585" 
d="M1529 1198v-117h-131v-1081h-300v594h-611v-594h-300v1081h-128v117h128v247h300v-247h611v247h300v-247h131zM1098 855v226h-611v-226h611z" />
    <glyph glyph-name="hbar" unicode="&#x127;" horiz-adv-x="1267" 
d="M771 1048q175 0 271.5 -97.5t96.5 -287.5v-663h-289v616q0 106 -51 153.5t-136 47.5q-43 0 -80.5 -12t-71.5 -38.5t-53.5 -77.5t-20.5 -122v-567h-288v1189h-122v176h122v171h288v-171h279v-176h-279v-284q117 143 334 143z" />
    <glyph glyph-name="Itilde" unicode="&#x128;" horiz-adv-x="673" 
d="M484 1590q-63 0 -101 21.5t-69 58.5q-3 3 -12 14.5t-12 15.5t-11 12.5t-13 11.5t-13 8t-16.5 6.5t-17.5 1.5q-41 0 -62.5 -38t-21.5 -99h-151q0 118 62 192.5t168 74.5q103 0 168 -73q6 -7 22.5 -26t24.5 -26.5t23.5 -15.5t31.5 -8q78 0 78 135h153q0 -117 -60.5 -191.5
t-170.5 -74.5zM187 0v1445h300v-1445h-300z" />
    <glyph glyph-name="itilde" unicode="&#x129;" horiz-adv-x="588" 
d="M428 1162q-111 0 -176 102q-25 39 -57 39q-34 0 -52 -35t-18 -93h-137q0 116 54.5 189t147.5 73q112 0 175 -103q24 -38 60 -38q67 0 67 128h138q0 -115 -53.5 -188.5t-148.5 -73.5zM149 0v1028h290v-1028h-290z" />
    <glyph glyph-name="Imacron" unicode="&#x12a;" horiz-adv-x="673" 
d="M3 1580v170h664v-170h-664zM187 0v1445h300v-1445h-300z" />
    <glyph glyph-name="imacron" unicode="&#x12b;" horiz-adv-x="588" 
d="M-37 1197v170h664v-170h-664zM149 0v1028h290v-1028h-290z" />
    <glyph glyph-name="Iogonek" unicode="&#x12e;" horiz-adv-x="673" 
d="M487 0q-172 -155 -172 -220q0 -36 60 -36q28 0 60 11t52 29v-182q-65 -27 -144 -27q-86 0 -139.5 28t-53.5 81q0 111 217 316h-180v1445h300v-1445z" />
    <glyph glyph-name="iogonek" unicode="&#x12f;" horiz-adv-x="588" 
d="M296 1182q-69 0 -118 48.5t-49 117.5q0 68 49.5 116.5t117.5 48.5q67 0 116 -48.5t49 -116.5q0 -69 -49 -117.5t-116 -48.5zM149 0v1028h290v-1028q-172 -155 -172 -220q0 -36 60 -36q28 0 60 11t52 29v-182q-65 -27 -144 -27q-86 0 -139.5 28t-53.5 81q0 111 217 316
h-170z" />
    <glyph glyph-name="Idotaccent" unicode="&#x130;" horiz-adv-x="673" 
d="M336 1536q-69 0 -118 48.5t-49 117.5q0 68 49 116t118 48q67 0 116 -48t49 -116q0 -69 -49 -117.5t-116 -48.5zM187 0v1445h300v-1445h-300z" />
    <glyph glyph-name="dotlessi" unicode="&#x131;" horiz-adv-x="588" 
d="M149 0v1028h290v-1028h-290z" />
    <glyph glyph-name="Kcommaaccent" unicode="&#x136;" horiz-adv-x="1453" 
d="M848 754l577 -754h-383l-449 614h-106v-614h-300v1445h300v-568h102l453 568h366zM417 -508l168 373h251l-278 -439z" />
    <glyph glyph-name="kcommaaccent" unicode="&#x137;" horiz-adv-x="1179" 
d="M738 551l443 -551h-350l-331 432h-60v-432h-291v1536h291v-904h54l323 396h326zM295 -508l168 373h251l-278 -439z" />
    <glyph glyph-name="Lacute" unicode="&#x139;" horiz-adv-x="982" 
d="M652 1847l-227 -267h-177l262 368zM487 265h453v-265h-753v1445h300v-1180z" />
    <glyph glyph-name="lacute" unicode="&#x13a;" horiz-adv-x="589" 
d="M206 1677l262 368l142 -100l-227 -268h-177zM149 0v1536h291v-1536h-291z" />
    <glyph glyph-name="Lcommaaccent" unicode="&#x13b;" horiz-adv-x="982" 
d="M487 265h453v-265h-753v1445h300v-1180zM270 -508l168 373h251l-278 -439z" />
    <glyph glyph-name="lcommaaccent" unicode="&#x13c;" horiz-adv-x="589" 
d="M149 0v1536h291v-1536h-291zM141 -574l-141 66l168 373h251z" />
    <glyph glyph-name="Lcaron" unicode="&#x13d;" horiz-adv-x="1121" 
d="M1073 1446l-215 -654h-206l125 654h296zM487 1445v-1180h453v-265h-753v1445h300z" />
    <glyph glyph-name="lcaron" unicode="&#x13e;" horiz-adv-x="812" 
d="M149 0v1536h290v-1536h-290zM559 882l126 654h296l-216 -654h-206z" />
    <glyph glyph-name="Lslash" unicode="&#x141;" horiz-adv-x="982" 
d="M487 265h453v-265h-753v522l-169 -125v181l169 126v741h300v-518l166 123v-183l-166 -123v-479z" />
    <glyph glyph-name="lslash" unicode="&#x142;" horiz-adv-x="589" 
d="M610 1108v-183l-170 -126v-799h-291v584l-174 -129v181l174 129v771h291v-554z" />
    <glyph glyph-name="Nacute" unicode="&#x143;" horiz-adv-x="1660" 
d="M1146 1847l-227 -267h-177l262 368zM1174 1445h299v-1445h-347l-640 1033v-1033h-299v1445h343l644 -1027v1027z" />
    <glyph glyph-name="nacute" unicode="&#x144;" horiz-adv-x="1269" 
d="M946 1437l-227 -268h-177l262 368zM756 1048q185 0 284 -92.5t99 -263.5v-692h-289v630q0 97 -51.5 142t-132.5 45q-47 0 -86 -13t-72 -40.5t-51.5 -77.5t-19.5 -119v-567h-288v1028h288v-114q114 134 319 134z" />
    <glyph glyph-name="Ncommaaccent" unicode="&#x145;" horiz-adv-x="1660" 
d="M1174 1445h299v-1445h-347l-640 1033v-1033h-299v1445h343l644 -1027v1027zM537 -508l168 373h251l-278 -439z" />
    <glyph glyph-name="ncommaaccent" unicode="&#x146;" horiz-adv-x="1269" 
d="M756 1048q185 0 284 -92.5t99 -263.5v-692h-289v630q0 97 -51.5 142t-132.5 45q-47 0 -86 -13t-72 -40.5t-51.5 -77.5t-19.5 -119v-567h-288v1028h288v-114q114 134 319 134zM337 -508l168 373h251l-278 -439z" />
    <glyph glyph-name="Ncaron" unicode="&#x147;" horiz-adv-x="1660" 
d="M918 1580h-174l-227 299h177l137 -167l136 167h178zM1174 1445h299v-1445h-347l-640 1033v-1033h-299v1445h343l644 -1027v1027z" />
    <glyph glyph-name="ncaron" unicode="&#x148;" horiz-adv-x="1269" 
d="M718 1206h-174l-227 299h177l137 -167l136 167h178zM756 1048q185 0 284 -92.5t99 -263.5v-692h-289v630q0 97 -51.5 142t-132.5 45q-47 0 -86 -13t-72 -40.5t-51.5 -77.5t-19.5 -119v-567h-288v1028h288v-114q114 134 319 134z" />
    <glyph glyph-name="Eng" unicode="&#x14a;" horiz-adv-x="1673" 
d="M1188 1445h299v-1445q0 -221 -138.5 -345t-371.5 -124v223q99 0 151 65.5t12 180.5l-655 1038v-1038h-298v1445h342l659 -1031v1031z" />
    <glyph glyph-name="eng" unicode="&#x14b;" horiz-adv-x="1269" 
d="M769 1048q177 0 274 -93.5t97 -266.5v-830q0 -156 -90.5 -249t-248.5 -93h-180v203h100q130 0 130 123v788q0 97 -52 142t-135 45q-46 0 -84.5 -12t-71.5 -39t-51.5 -76.5t-19.5 -117.5v-572h-288v1028h288v-119q118 139 332 139z" />
    <glyph glyph-name="Omacron" unicode="&#x14c;" horiz-adv-x="1654" 
d="M495 1580v170h664v-170h-664zM827 -20q-212 0 -379.5 90.5t-263.5 260.5t-96 392q0 223 96 392.5t263.5 259.5t379.5 90t379 -90t263 -259.5t96 -392.5q0 -222 -96 -392t-263.5 -260.5t-378.5 -90.5zM827 255q192 0 316 126.5t124 341.5q0 214 -124 340t-316 126
t-316 -126t-124 -340q0 -215 124 -341.5t316 -126.5z" />
    <glyph glyph-name="omacron" unicode="&#x14d;" horiz-adv-x="1257" 
d="M296 1196v170h664v-170h-664zM628 -20q-164 0 -291 63t-199.5 185t-72.5 287q0 247 156 390t407 143q252 0 408 -143t156 -390q0 -248 -156 -391.5t-408 -143.5zM625 209q126 0 203.5 84t77.5 222t-77.5 222t-203.5 84q-121 0 -197.5 -84.5t-76.5 -221.5t76.5 -221.5
t197.5 -84.5z" />
    <glyph glyph-name="Ohungarumlaut" unicode="&#x150;" horiz-adv-x="1654" 
d="M549 1580l262 368l142 -101l-227 -267h-177zM926 1580l263 368l141 -101l-226 -267h-178zM827 -20q-212 0 -379.5 90.5t-263.5 260.5t-96 392q0 223 96 392.5t263.5 259.5t379.5 90t379 -90t263 -259.5t96 -392.5q0 -222 -96 -392t-263.5 -260.5t-378.5 -90.5zM827 255
q192 0 316 126.5t124 341.5q0 214 -124 340t-316 126t-316 -126t-124 -340q0 -215 124 -341.5t316 -126.5z" />
    <glyph glyph-name="ohungarumlaut" unicode="&#x151;" horiz-adv-x="1257" 
d="M350 1168l262 368l142 -100l-227 -268h-177zM727 1168l263 368l141 -100l-226 -268h-178zM628 -20q-164 0 -291 63t-199.5 185t-72.5 287q0 247 156 390t407 143q252 0 408 -143t156 -390q0 -248 -156 -391.5t-408 -143.5zM625 209q126 0 203.5 84t77.5 222t-77.5 222
t-203.5 84q-121 0 -197.5 -84.5t-76.5 -221.5t76.5 -221.5t197.5 -84.5z" />
    <glyph glyph-name="OE" unicode="&#x152;" horiz-adv-x="2000" 
d="M810 0q-188 0 -328 51.5t-225.5 148t-127 227.5t-41.5 299q0 167 41.5 297t127 225.5t225 146t328.5 50.5h1068v-265h-571v-321h485v-266h-485v-328h571v-265h-1068zM825 265h182v915h-182q-119 0 -201.5 -29t-131 -88t-69.5 -141t-21 -196q0 -233 95.5 -347t327.5 -114z
" />
    <glyph glyph-name="oe" unicode="&#x153;" horiz-adv-x="2027" 
d="M1958 529l-3 -69h-762q9 -123 82 -188t181 -65q78 0 135.5 35.5t86.5 103.5l264 -39q-51 -155 -180 -241t-304 -86q-264 0 -412 153q-155 -153 -418 -153q-164 0 -291 63t-199.5 185t-72.5 287q0 247 156 390t407 143q263 0 418 -153q147 155 403 155q230 0 369 -131
t140 -390zM1451 846q-210 0 -250 -198h472q-11 96 -71 147t-151 51zM625 209q126 0 203.5 84t77.5 222t-77.5 222t-203.5 84q-121 0 -197.5 -84.5t-76.5 -221.5t76.5 -221.5t197.5 -84.5z" />
    <glyph glyph-name="Racute" unicode="&#x154;" horiz-adv-x="1338" 
d="M975 1847l-227 -267h-177l262 368zM950 0l-376 636h-87v-636h-300v1445h524q119 0 210 -33.5t145.5 -93t82 -136.5t27.5 -169q0 -145 -79 -237.5t-227 -124.5l435 -651h-355zM487 1196v-345h177q225 0 225 172q0 81 -55 127t-170 46h-177z" />
    <glyph glyph-name="racute" unicode="&#x155;" horiz-adv-x="781" 
d="M683 1437l-227 -268h-177l262 368zM425 865q41 72 135 123.5t201 51.5v-257q-170 0 -246 -62t-76 -220v-501h-290v1028h276v-163z" />
    <glyph glyph-name="Rcommaaccent" unicode="&#x156;" horiz-adv-x="1338" 
d="M870 651l435 -651h-355l-376 636h-87v-636h-300v1445h524q119 0 210 -33.5t145.5 -93t82 -136.5t27.5 -169q0 -145 -79 -237.5t-227 -124.5zM487 1196v-345h177q225 0 225 172q0 81 -55 127t-170 46h-177zM366 -508l168 373h251l-278 -439z" />
    <glyph glyph-name="rcommaaccent" unicode="&#x157;" horiz-adv-x="781" 
d="M425 865q41 72 135 123.5t201 51.5v-257q-170 0 -246 -62t-76 -220v-501h-290v1028h276v-163zM-1 -508l168 373h251l-278 -439z" />
    <glyph glyph-name="Rcaron" unicode="&#x158;" horiz-adv-x="1338" 
d="M747 1580h-174l-227 299h177l137 -167l136 167h178zM950 0l-376 636h-87v-636h-300v1445h524q119 0 210 -33.5t145.5 -93t82 -136.5t27.5 -169q0 -145 -79 -237.5t-227 -124.5l435 -651h-355zM487 1196v-345h177q225 0 225 172q0 81 -55 127t-170 46h-177z" />
    <glyph glyph-name="rcaron" unicode="&#x159;" horiz-adv-x="781" 
d="M455 1206h-174l-227 299h177l137 -167l136 167h178zM425 865q41 72 135 123.5t201 51.5v-257q-170 0 -246 -62t-76 -220v-501h-290v1028h276v-163z" />
    <glyph glyph-name="Sacute" unicode="&#x15a;" horiz-adv-x="1297" 
d="M563 1580l262 368l142 -101l-227 -267h-177zM667 -20q-238 0 -401 110.5t-195 309.5l310 71q15 -119 95.5 -182.5t202.5 -63.5q97 0 158 44.5t60 131.5q0 61 -51 107t-101.5 65.5t-162.5 53.5q-15 5 -22 7q-57 18 -92 30t-86.5 33.5t-84 42t-69.5 52t-58 66.5t-35 83
t-14 103q0 131 67.5 227.5t182 145t260.5 48.5q99 0 188.5 -21t168.5 -64.5t134.5 -119t76.5 -175.5l-290 -72q-39 207 -260 207q-98 0 -161 -42t-63 -127q0 -79 105 -128q49 -24 201 -69q59 -18 96 -30t93 -35t91 -44.5t76 -55.5t64.5 -72t39.5 -89.5t16 -111.5
q0 -90 -29 -163t-79.5 -123t-119.5 -84.5t-147 -50t-165 -15.5z" />
    <glyph glyph-name="sacute" unicode="&#x15b;" horiz-adv-x="992" 
d="M411 1171l262 368l142 -100l-227 -268h-177zM511 -20q-180 0 -300 72t-147 214l241 68q43 -153 206 -153q63 0 105 23.5t41 79.5q0 31 -17 53t-52.5 38t-70 27t-91.5 26.5t-95 29.5q-52 18 -90.5 38.5t-75 53t-56 80.5t-19.5 110q0 152 111.5 230t291.5 78q160 0 269 -66
t138 -206l-223 -50q-42 130 -183 130q-61 0 -101 -23t-40 -68q0 -17 6 -31t21 -25t29 -19t41 -16.5t45 -13t52.5 -13.5t53.5 -14q55 -15 96.5 -30t88.5 -42t77.5 -60.5t50.5 -85t20 -114.5q0 -85 -34.5 -149t-94.5 -100.5t-133.5 -54t-160.5 -17.5z" />
    <glyph glyph-name="Scedilla" unicode="&#x15e;" horiz-adv-x="1297" 
d="M1207 416q0 -106 -40 -188.5t-110 -134t-157.5 -79.5t-189.5 -33l-59 -104q30 6 45 6q85 0 140.5 -54t55.5 -138q0 -94 -64.5 -158.5t-158.5 -64.5q-85 0 -149.5 43t-89.5 108l127 44q15 -29 44.5 -46.5t61.5 -17.5q39 0 66.5 25.5t27.5 66.5q0 43 -27.5 67t-68.5 24
q-46 0 -74 -31l-105 62l94 171q-204 21 -340 129t-165 287l310 71q15 -119 95.5 -182.5t202.5 -63.5q97 0 158 44.5t60 131.5q0 61 -51 107t-101.5 65.5t-162.5 53.5q-15 5 -22 7q-57 18 -92 30t-86.5 33.5t-84 42t-69.5 52t-58 66.5t-35 83t-14 103q0 131 67.5 227.5
t182 145t260.5 48.5q99 0 188.5 -21t168.5 -64.5t134.5 -119t76.5 -175.5l-290 -72q-39 207 -260 207q-98 0 -161 -42t-63 -127q0 -79 105 -128q49 -24 201 -69q59 -18 96 -30t93 -35t91 -44.5t76 -55.5t64.5 -72t39.5 -89.5t16 -111.5z" />
    <glyph glyph-name="scedilla" unicode="&#x15f;" horiz-adv-x="992" 
d="M934 301q0 -79 -30 -140t-83 -98t-119 -57t-145 -25l-58 -103q30 6 45 6q85 0 140.5 -54t55.5 -138q0 -94 -64.5 -158.5t-158.5 -64.5q-85 0 -149.5 43t-89.5 108l127 44q15 -29 44.5 -46.5t61.5 -17.5q39 0 66.5 25.5t27.5 66.5q0 43 -27.5 67t-68.5 24q-46 0 -74 -31
l-105 62l93 171q-146 16 -241 87t-118 194l241 68q43 -153 206 -153q63 0 105 23.5t41 79.5q0 31 -17 53t-52.5 38t-70 27t-91.5 26.5t-95 29.5q-52 18 -90.5 38.5t-75 53t-56 80.5t-19.5 110q0 152 111.5 230t291.5 78q160 0 269 -66t138 -206l-223 -50q-42 130 -183 130
q-61 0 -101 -23t-40 -68q0 -17 6 -31t21 -25t29 -19t41 -16.5t45 -13t52.5 -13.5t53.5 -14q55 -15 96.5 -30t88.5 -42t77.5 -60.5t50.5 -85t20 -114.5z" />
    <glyph glyph-name="Scaron" unicode="&#x160;" horiz-adv-x="1297" 
d="M565 1580l-227 299h177l137 -167l136 167h178l-227 -299h-174zM667 -20q-238 0 -401 110.5t-195 309.5l310 71q15 -119 95.5 -182.5t202.5 -63.5q97 0 158 44.5t60 131.5q0 61 -51 107t-101.5 65.5t-162.5 53.5q-15 5 -22 7q-57 18 -92 30t-86.5 33.5t-84 42t-69.5 52
t-58 66.5t-35 83t-14 103q0 131 67.5 227.5t182 145t260.5 48.5q99 0 188.5 -21t168.5 -64.5t134.5 -119t76.5 -175.5l-290 -72q-39 207 -260 207q-98 0 -161 -42t-63 -127q0 -79 105 -128q49 -24 201 -69q59 -18 96 -30t93 -35t91 -44.5t76 -55.5t64.5 -72t39.5 -89.5
t16 -111.5q0 -90 -29 -163t-79.5 -123t-119.5 -84.5t-147 -50t-165 -15.5z" />
    <glyph glyph-name="scaron" unicode="&#x161;" horiz-adv-x="992" 
d="M413 1208l-227 299h177l137 -167l136 167h178l-227 -299h-174zM511 -20q-180 0 -300 72t-147 214l241 68q43 -153 206 -153q63 0 105 23.5t41 79.5q0 31 -17 53t-52.5 38t-70 27t-91.5 26.5t-95 29.5q-52 18 -90.5 38.5t-75 53t-56 80.5t-19.5 110q0 152 111.5 230
t291.5 78q160 0 269 -66t138 -206l-223 -50q-42 130 -183 130q-61 0 -101 -23t-40 -68q0 -17 6 -31t21 -25t29 -19t41 -16.5t45 -13t52.5 -13.5t53.5 -14q55 -15 96.5 -30t88.5 -42t77.5 -60.5t50.5 -85t20 -114.5q0 -85 -34.5 -149t-94.5 -100.5t-133.5 -54t-160.5 -17.5z
" />
    <glyph glyph-name="uni0162" unicode="&#x162;" horiz-adv-x="1065" 
d="M682 0h-80l-70 -123q30 6 45 6q85 0 140.5 -54t55.5 -138q0 -94 -64.5 -158.5t-158.5 -64.5q-85 0 -149.5 43t-89.5 108l127 44q15 -29 44.5 -46.5t61.5 -17.5q39 0 66.5 25.5t27.5 66.5q0 43 -27.5 67t-68.5 24q-46 0 -74 -31l-105 62l102 187h-80v1181h-345v264h985
v-264h-343v-1181z" />
    <glyph glyph-name="uni0163" unicode="&#x163;" horiz-adv-x="796" 
d="M629 -117q85 0 140.5 -54t55.5 -138q0 -94 -64.5 -158.5t-158.5 -64.5q-85 0 -149.5 43t-89.5 108l127 44q15 -29 44.5 -46.5t61.5 -17.5q39 0 66.5 25.5t27.5 66.5q0 43 -27.5 67t-68.5 24q-46 0 -74 -31l-105 62l102 187q-143 5 -221 88t-78 233v486h-202v221h65
q87 0 128 43t41 153v136h260v-332h212v-221h-212v-455q0 -133 119 -133h93v-219h-68l-70 -123q30 6 45 6z" />
    <glyph glyph-name="Tcaron" unicode="&#x164;" horiz-adv-x="1065" 
d="M620 1580h-174l-227 299h177l137 -167l136 167h178zM1025 1445v-264h-343v-1181h-297v1181h-345v264h985z" />
    <glyph glyph-name="tcaron" unicode="&#x165;" horiz-adv-x="759" 
d="M620 1200l125 653h297l-216 -653h-206zM508 0q-149 0 -231 83.5t-82 237.5v486h-203v221h66q86 0 127.5 43t41.5 153v136h259v-332h212v-221h-212v-455q0 -133 120 -133h92v-219h-190z" />
    <glyph glyph-name="Tbar" unicode="&#x166;" horiz-adv-x="1065" 
d="M1025 1181h-343v-370h196v-176h-196v-635h-297v635h-196v176h196v370h-345v264h985v-264z" />
    <glyph glyph-name="tbar" unicode="&#x167;" horiz-adv-x="796" 
d="M722 807h-212v-204h149v-176h-149v-75q0 -133 119 -133h93v-219h-190q-150 0 -232 83.5t-82 237.5v106h-142v176h142v204h-202v221h65q87 0 128 43t41 153v136h260v-332h212v-221z" />
    <glyph glyph-name="Utilde" unicode="&#x168;" horiz-adv-x="1446" 
d="M871 1590q-63 0 -101 21.5t-69 58.5q-3 3 -12 14.5t-12 15.5t-11 12.5t-13 11.5t-13 8t-16.5 6.5t-17.5 1.5q-41 0 -62.5 -38t-21.5 -99h-151q0 118 62 192.5t168 74.5q103 0 168 -73q6 -7 22.5 -26t24.5 -26.5t23.5 -15.5t31.5 -8q78 0 78 135h153q0 -117 -60.5 -191.5
t-170.5 -74.5zM722 -20q-121 0 -222.5 31.5t-178.5 94.5t-120.5 165t-43.5 235v939h300v-898q0 -156 72.5 -229t192.5 -73t193.5 73.5t73.5 228.5v898h300v-939q0 -133 -43.5 -235t-121 -165t-179 -94.5t-223.5 -31.5z" />
    <glyph glyph-name="utilde" unicode="&#x169;" horiz-adv-x="1267" 
d="M535 1303q-34 0 -52 -35t-18 -93h-137q0 116 54.5 189t147.5 73q112 0 175 -103q24 -38 60 -38q67 0 67 128h138q0 -115 -53.5 -188.5t-148.5 -73.5q-111 0 -176 102q-25 39 -57 39zM830 1028h288v-1028h-273l-7 124q-114 -144 -327 -144q-185 0 -284 92.5t-99 263.5v692
h289v-630q0 -96 51.5 -141t133.5 -45q100 0 163.5 58.5t64.5 190.5v567z" />
    <glyph glyph-name="Umacron" unicode="&#x16a;" horiz-adv-x="1446" 
d="M390 1580v170h664v-170h-664zM722 -20q-121 0 -222.5 31.5t-178.5 94.5t-120.5 165t-43.5 235v939h300v-898q0 -156 72.5 -229t192.5 -73t193.5 73.5t73.5 228.5v898h300v-939q0 -133 -43.5 -235t-121 -165t-179 -94.5t-223.5 -31.5z" />
    <glyph glyph-name="umacron" unicode="&#x16b;" horiz-adv-x="1267" 
d="M967 1367v-170h-664v170h664zM830 1028h288v-1028h-273l-7 124q-114 -144 -327 -144q-185 0 -284 92.5t-99 263.5v692h289v-630q0 -96 51.5 -141t133.5 -45q100 0 163.5 58.5t64.5 190.5v567z" />
    <glyph glyph-name="Uring" unicode="&#x16e;" horiz-adv-x="1446" 
d="M722 1580q-100 0 -170.5 70.5t-70.5 169.5q0 98 70.5 167.5t170.5 69.5q98 0 167.5 -69.5t69.5 -167.5q0 -99 -69.5 -169.5t-167.5 -70.5zM722 1701q50 0 84 33.5t34 85.5q0 49 -34.5 84.5t-83.5 35.5t-82.5 -35.5t-33.5 -84.5q0 -53 33 -86t83 -33zM722 -20
q-121 0 -222.5 31.5t-178.5 94.5t-120.5 165t-43.5 235v939h300v-898q0 -156 72.5 -229t192.5 -73t193.5 73.5t73.5 228.5v898h300v-939q0 -133 -43.5 -235t-121 -165t-179 -94.5t-223.5 -31.5z" />
    <glyph glyph-name="uring" unicode="&#x16f;" horiz-adv-x="1267" 
d="M635 1140q-100 0 -170.5 71t-70.5 170q0 97 71 167t170 70q97 0 167 -70t70 -167q0 -99 -70 -170t-167 -71zM635 1501q-49 0 -82.5 -36t-33.5 -84q0 -53 33 -86t83 -33t84 33.5t34 85.5q0 48 -34.5 84t-83.5 36zM830 1028h288v-1028h-273l-7 124q-114 -144 -327 -144
q-185 0 -284 92.5t-99 263.5v692h289v-630q0 -96 51.5 -141t133.5 -45q100 0 163.5 58.5t64.5 190.5v567z" />
    <glyph glyph-name="Uhungarumlaut" unicode="&#x170;" horiz-adv-x="1446" 
d="M444 1580l262 368l142 -101l-227 -267h-177zM821 1580l263 368l141 -101l-226 -267h-178zM722 -20q-121 0 -222.5 31.5t-178.5 94.5t-120.5 165t-43.5 235v939h300v-898q0 -156 72.5 -229t192.5 -73t193.5 73.5t73.5 228.5v898h300v-939q0 -133 -43.5 -235t-121 -165
t-179 -94.5t-223.5 -31.5z" />
    <glyph glyph-name="uhungarumlaut" unicode="&#x171;" horiz-adv-x="1267" 
d="M761 1437l-227 -268h-177l262 368zM912 1169h-178l263 368l141 -100zM830 461v567h288v-1028h-273l-7 124q-114 -144 -327 -144q-185 0 -284 92.5t-99 263.5v692h289v-630q0 -96 51.5 -141t133.5 -45q100 0 163.5 58.5t64.5 190.5z" />
    <glyph glyph-name="Uogonek" unicode="&#x172;" horiz-adv-x="1446" 
d="M989 1445h300v-939q0 -171 -70 -287.5t-195 -176.5q-148 -139 -148 -198q0 -36 60 -36q28 0 60 11t52 29v-182q-65 -27 -144 -27q-86 0 -139.5 28t-53.5 81q0 88 143 242q-60 -10 -132 -10q-121 0 -222.5 31.5t-178.5 94.5t-120.5 165t-43.5 235v939h300v-898
q0 -156 72.5 -229t192.5 -73t193.5 73.5t73.5 228.5v898z" />
    <glyph glyph-name="uogonek" unicode="&#x173;" horiz-adv-x="1267" 
d="M1118 0q-172 -155 -172 -220q0 -36 60 -36q28 0 60 11t52 29v-182q-65 -27 -144 -27q-86 0 -139.5 28t-53.5 81q0 111 217 316h-153l-7 124q-114 -144 -327 -144q-185 0 -284 92.5t-99 263.5v692h289v-630q0 -96 51.5 -141t133.5 -45q100 0 163.5 58.5t64.5 190.5v567
h288v-1028z" />
    <glyph glyph-name="Wcircumflex" unicode="&#x174;" horiz-adv-x="2175" 
d="M950 1580h-177l227 299h173l227 -299h-177l-137 166zM422 0l-378 1445h312l282 -1094l323 1094h253l321 -1094l285 1094h311l-378 -1445h-386l-280 893l-279 -893h-386z" />
    <glyph glyph-name="wcircumflex" unicode="&#x175;" horiz-adv-x="1752" 
d="M886 1372l-136 -166h-177l227 299h173l227 -299h-177zM1443 1028h298l-360 -1029h-267l-238 679l-240 -679h-271l-353 1029h297l212 -669l243 669h221l242 -667z" />
    <glyph glyph-name="Ycircumflex" unicode="&#x176;" horiz-adv-x="1287" 
d="M643 1746l-136 -166h-177l227 299h173l227 -299h-177zM1271 1445l-475 -753v-692h-301v685l-478 760h332l295 -492l296 492h331z" />
    <glyph glyph-name="ycircumflex" unicode="&#x177;" horiz-adv-x="1120" 
d="M560 1372l-136 -166h-177l227 299h173l227 -299h-177zM822 1028h295l-634 -1512h-292l235 526l-423 986h314l245 -676z" />
    <glyph glyph-name="Ydieresis" unicode="&#x178;" horiz-adv-x="1287" 
d="M429 1536q-69 0 -118 48.5t-49 117.5q0 68 49 116t118 48q67 0 116 -48t49 -116q0 -69 -49 -117.5t-116 -48.5zM860 1536q-69 0 -118 48.5t-49 117.5q0 68 49 116t118 48q67 0 116 -48t49 -116q0 -69 -49 -117.5t-116 -48.5zM1271 1445l-475 -753v-692h-301v685l-478 760
h332l295 -492l296 492h331z" />
    <glyph glyph-name="Zacute" unicode="&#x179;" horiz-adv-x="1232" 
d="M956 1847l-227 -267h-177l262 368zM450 265h694v-265h-1053v237l685 944h-684v264h1039v-237z" />
    <glyph glyph-name="zacute" unicode="&#x17a;" horiz-adv-x="947" 
d="M804 1437l-227 -268h-177l262 368zM899 1028l-452 -806h438v-222h-847l450 806h-415v222h826z" />
    <glyph glyph-name="Zdotaccent" unicode="&#x17b;" horiz-adv-x="1232" 
d="M642 1536q-69 0 -118 48.5t-49 117.5q0 68 49 116t118 48q67 0 116 -48t49 -116q0 -69 -49 -117.5t-116 -48.5zM450 265h694v-265h-1053v237l685 944h-684v264h1039v-237z" />
    <glyph glyph-name="zdotaccent" unicode="&#x17c;" horiz-adv-x="947" 
d="M490 1182q-69 0 -118 48.5t-49 117.5q0 68 49.5 116.5t117.5 48.5q67 0 116 -48.5t49 -116.5q0 -69 -49 -117.5t-116 -48.5zM899 1028l-452 -806h438v-222h-847l450 806h-415v222h826z" />
    <glyph glyph-name="Zcaron" unicode="&#x17d;" horiz-adv-x="1232" 
d="M728 1580h-174l-227 299h177l137 -167l136 167h178zM450 265h694v-265h-1053v237l685 944h-684v264h1039v-237z" />
    <glyph glyph-name="zcaron" unicode="&#x17e;" horiz-adv-x="947" 
d="M576 1206h-174l-227 299h177l137 -167l136 167h178zM899 1028l-452 -806h438v-222h-847l450 806h-415v222h826z" />
    <glyph glyph-name="florin" unicode="&#x192;" horiz-adv-x="1060" 
d="M132 -421l195 1227h-171l34 222h173l26 170q21 152 145.5 255t277.5 103q50 0 94 -11t63 -26l-23 -204q-39 32 -103 32q-78 0 -130 -50t-66 -137l-21 -132h277l-35 -222h-276l-197 -1227h-263z" />
    <glyph glyph-name="Ohorn" unicode="&#x1a0;" horiz-adv-x="1654" 
d="M1498 1541h141v-166q0 -125 -51.5 -178t-133.5 -53h-2q113 -180 113 -421q0 -222 -96 -392t-263.5 -260.5t-378.5 -90.5q-212 0 -379.5 90.5t-263.5 260.5t-96 392q0 223 96 392.5t263.5 259.5t379.5 90q297 0 498 -173q42 -18 77 -18q55 0 75.5 30t20.5 110v127z
M827 255q192 0 316 126.5t124 341.5q0 214 -124 340t-316 126t-316 -126t-124 -340q0 -215 124 -341.5t316 -126.5z" />
    <glyph glyph-name="ohorn" unicode="&#x1a1;" horiz-adv-x="1257" 
d="M1143 1192h141v-166q0 -215 -161 -230q69 -122 69 -281q0 -248 -156 -391.5t-408 -143.5q-164 0 -291 63t-199.5 185t-72.5 287q0 247 156 390t407 143q229 0 378 -118q27 -5 41 -5q55 0 75.5 30t20.5 110v127zM625 209q126 0 203.5 84t77.5 222t-77.5 222t-203.5 84
q-121 0 -197.5 -84.5t-76.5 -221.5t76.5 -221.5t197.5 -84.5z" />
    <glyph glyph-name="Uhorn" unicode="&#x1af;" horiz-adv-x="1446" 
d="M1442 1615h141v-166q0 -125 -51.5 -178t-133.5 -53q-49 0 -109 20v-732q0 -133 -43.5 -235t-121 -165t-179 -94.5t-223.5 -31.5q-121 0 -222.5 31.5t-178.5 94.5t-120.5 165t-43.5 235v939h300v-898q0 -156 72.5 -229t192.5 -73t193.5 73.5t73.5 228.5v898h300v-87
q31 -10 57 -10q55 0 75.5 30t20.5 110v127z" />
    <glyph glyph-name="uhorn" unicode="&#x1b0;" horiz-adv-x="1267" 
d="M1266 1198h141v-166q0 -125 -51.5 -178t-133.5 -53q-48 0 -104 18v-819h-273l-7 124q-114 -144 -327 -144q-185 0 -284 92.5t-99 263.5v692h289v-630q0 -96 51.5 -141t133.5 -45q100 0 163.5 58.5t64.5 190.5v567h288v-88q26 -9 52 -9q55 0 75.5 30t20.5 110v127z" />
    <glyph glyph-name="uni01CD" unicode="&#x1cd;" horiz-adv-x="1491" 
d="M833 1580h-174l-227 299h177l137 -167l136 167h178zM1154 0l-105 298h-607l-105 -298h-307l532 1445h367l532 -1445h-307zM530 549h431l-215 613z" />
    <glyph glyph-name="uni01CE" unicode="&#x1ce;" horiz-adv-x="1123" 
d="M652 1206h-174l-227 299h177l137 -167l136 167h178zM992 279q0 -164 25 -251v-28h-269l-23 112q-55 -66 -144 -99t-186 -33q-51 0 -96 9t-86.5 30.5t-71.5 53.5t-48 81.5t-18 111.5t19 111.5t50 83.5t81 61t102 44t122 32l169 38q54 13 76.5 32.5t22.5 51.5
q0 69 -50.5 99t-122.5 30q-177 0 -201 -157l-255 46q32 159 149 234.5t323 75.5q432 0 432 -371v-398zM485 175q109 0 178 74.5t69 220.5l-244 -69q-67 -16 -102.5 -42t-35.5 -74q0 -53 38 -81.5t97 -28.5z" />
    <glyph glyph-name="uni01CF" unicode="&#x1cf;" horiz-adv-x="673" 
d="M248 1580l-227 299h177l137 -167l136 167h178l-227 -299h-174zM187 0v1445h300v-1445h-300z" />
    <glyph glyph-name="uni01D0" unicode="&#x1d0;" horiz-adv-x="588" 
d="M208 1206l-227 299h177l137 -167l136 167h178l-227 -299h-174zM149 0v1028h290v-1028h-290z" />
    <glyph glyph-name="uni01D1" unicode="&#x1d1;" horiz-adv-x="1654" 
d="M740 1580l-227 299h177l137 -167l136 167h178l-227 -299h-174zM827 -20q-212 0 -379.5 90.5t-263.5 260.5t-96 392q0 223 96 392.5t263.5 259.5t379.5 90t379 -90t263 -259.5t96 -392.5q0 -222 -96 -392t-263.5 -260.5t-378.5 -90.5zM827 255q192 0 316 126.5t124 341.5
q0 214 -124 340t-316 126t-316 -126t-124 -340q0 -215 124 -341.5t316 -126.5z" />
    <glyph glyph-name="uni01D2" unicode="&#x1d2;" horiz-adv-x="1257" 
d="M541 1205l-227 299h177l137 -167l136 167h178l-227 -299h-174zM628 -20q-164 0 -291 63t-199.5 185t-72.5 287q0 247 156 390t407 143q252 0 408 -143t156 -390q0 -248 -156 -391.5t-408 -143.5zM625 209q126 0 203.5 84t77.5 222t-77.5 222t-203.5 84
q-121 0 -197.5 -84.5t-76.5 -221.5t76.5 -221.5t197.5 -84.5z" />
    <glyph glyph-name="uni01D3" unicode="&#x1d3;" horiz-adv-x="1446" 
d="M635 1580l-227 299h177l137 -167l136 167h178l-227 -299h-174zM722 -20q-121 0 -222.5 31.5t-178.5 94.5t-120.5 165t-43.5 235v939h300v-898q0 -156 72.5 -229t192.5 -73t193.5 73.5t73.5 228.5v898h300v-939q0 -133 -43.5 -235t-121 -165t-179 -94.5t-223.5 -31.5z" />
    <glyph glyph-name="uni01D4" unicode="&#x1d4;" horiz-adv-x="1267" 
d="M722 1206h-174l-227 299h177l137 -167l136 167h178zM830 1028h288v-1028h-273l-7 124q-114 -144 -327 -144q-185 0 -284 92.5t-99 263.5v692h289v-630q0 -96 51.5 -141t133.5 -45q100 0 163.5 58.5t64.5 190.5v567z" />
    <glyph glyph-name="uni01D5" unicode="&#x1d5;" horiz-adv-x="1446" 
d="M390 2001v170h664v-170h-664zM507 1536q-69 0 -118 48.5t-49 117.5q0 68 49 116t118 48q67 0 116 -48t49 -116q0 -69 -49 -117.5t-116 -48.5zM938 1536q-69 0 -118 48.5t-49 117.5q0 68 49 116t118 48q67 0 116 -48t49 -116q0 -69 -49 -117.5t-116 -48.5zM722 -20
q-121 0 -222.5 31.5t-178.5 94.5t-120.5 165t-43.5 235v939h300v-898q0 -156 72.5 -229t192.5 -73t193.5 73.5t73.5 228.5v898h300v-939q0 -133 -43.5 -235t-121 -165t-179 -94.5t-223.5 -31.5z" />
    <glyph glyph-name="uni01D6" unicode="&#x1d6;" horiz-adv-x="1267" 
d="M967 1831v-170h-664v170h664zM420 1182q-69 0 -118 48.5t-49 117.5q0 68 49.5 116.5t117.5 48.5q67 0 116 -48.5t49 -116.5q0 -69 -49 -117.5t-116 -48.5zM684 1348q0 68 49 116.5t118 48.5q67 0 116 -48.5t49 -116.5q0 -69 -49 -117.5t-116 -48.5q-69 0 -118 48.5
t-49 117.5zM830 1028h288v-1028h-273l-7 124q-114 -144 -327 -144q-185 0 -284 92.5t-99 263.5v692h289v-630q0 -96 51.5 -141t133.5 -45q100 0 163.5 58.5t64.5 190.5v567z" />
    <glyph glyph-name="uni01D7" unicode="&#x1d7;" horiz-adv-x="1446" 
d="M633 2001l262 368l142 -101l-227 -267h-177zM507 1536q-69 0 -118 48.5t-49 117.5q0 68 49 116t118 48q67 0 116 -48t49 -116q0 -69 -49 -117.5t-116 -48.5zM938 1536q-69 0 -118 48.5t-49 117.5q0 68 49 116t118 48q67 0 116 -48t49 -116q0 -69 -49 -117.5t-116 -48.5z
M722 -20q-121 0 -222.5 31.5t-178.5 94.5t-120.5 165t-43.5 235v939h300v-898q0 -156 72.5 -229t192.5 -73t193.5 73.5t73.5 228.5v898h300v-939q0 -133 -43.5 -235t-121 -165t-179 -94.5t-223.5 -31.5z" />
    <glyph glyph-name="uni01D8" unicode="&#x1d8;" horiz-adv-x="1267" 
d="M950 1901l-227 -268h-177l262 368zM420 1182q-69 0 -118 48.5t-49 117.5q0 68 49.5 116.5t117.5 48.5q67 0 116 -48.5t49 -116.5q0 -69 -49 -117.5t-116 -48.5zM684 1348q0 68 49 116.5t118 48.5q67 0 116 -48.5t49 -116.5q0 -69 -49 -117.5t-116 -48.5q-69 0 -118 48.5
t-49 117.5zM830 1028h288v-1028h-273l-7 124q-114 -144 -327 -144q-185 0 -284 92.5t-99 263.5v692h289v-630q0 -96 51.5 -141t133.5 -45q100 0 163.5 58.5t64.5 190.5v567z" />
    <glyph glyph-name="uni01D9" unicode="&#x1d9;" horiz-adv-x="1446" 
d="M635 2001l-227 299h177l137 -167l136 167h178l-227 -299h-174zM507 1536q-69 0 -118 48.5t-49 117.5q0 68 49 116t118 48q67 0 116 -48t49 -116q0 -69 -49 -117.5t-116 -48.5zM938 1536q-69 0 -118 48.5t-49 117.5q0 68 49 116t118 48q67 0 116 -48t49 -116
q0 -69 -49 -117.5t-116 -48.5zM722 -20q-121 0 -222.5 31.5t-178.5 94.5t-120.5 165t-43.5 235v939h300v-898q0 -156 72.5 -229t192.5 -73t193.5 73.5t73.5 228.5v898h300v-939q0 -133 -43.5 -235t-121 -165t-179 -94.5t-223.5 -31.5z" />
    <glyph glyph-name="uni01DA" unicode="&#x1da;" horiz-adv-x="1267" 
d="M722 1670h-174l-227 299h177l137 -167l136 167h178zM420 1182q-69 0 -118 48.5t-49 117.5q0 68 49.5 116.5t117.5 48.5q67 0 116 -48.5t49 -116.5q0 -69 -49 -117.5t-116 -48.5zM684 1348q0 68 49 116.5t118 48.5q67 0 116 -48.5t49 -116.5q0 -69 -49 -117.5t-116 -48.5
q-69 0 -118 48.5t-49 117.5zM830 1028h288v-1028h-273l-7 124q-114 -144 -327 -144q-185 0 -284 92.5t-99 263.5v692h289v-630q0 -96 51.5 -141t133.5 -45q100 0 163.5 58.5t64.5 190.5v567z" />
    <glyph glyph-name="uni01DB" unicode="&#x1db;" horiz-adv-x="1446" 
d="M633 2001l-226 267l141 101l263 -368h-178zM507 1536q-69 0 -118 48.5t-49 117.5q0 68 49 116t118 48q67 0 116 -48t49 -116q0 -69 -49 -117.5t-116 -48.5zM938 1536q-69 0 -118 48.5t-49 117.5q0 68 49 116t118 48q67 0 116 -48t49 -116q0 -69 -49 -117.5t-116 -48.5z
M722 -20q-121 0 -222.5 31.5t-178.5 94.5t-120.5 165t-43.5 235v939h300v-898q0 -156 72.5 -229t192.5 -73t193.5 73.5t73.5 228.5v898h300v-939q0 -133 -43.5 -235t-121 -165t-179 -94.5t-223.5 -31.5z" />
    <glyph glyph-name="uni01DC" unicode="&#x1dc;" horiz-adv-x="1267" 
d="M724 1633h-178l-226 268l141 100zM420 1182q-69 0 -118 48.5t-49 117.5q0 68 49.5 116.5t117.5 48.5q67 0 116 -48.5t49 -116.5q0 -69 -49 -117.5t-116 -48.5zM851 1182q-69 0 -118 48.5t-49 117.5q0 68 49 116.5t118 48.5q67 0 116 -48.5t49 -116.5q0 -69 -49 -117.5
t-116 -48.5zM830 1028h288v-1028h-273l-7 124q-114 -144 -327 -144q-185 0 -284 92.5t-99 263.5v692h289v-630q0 -96 51.5 -141t133.5 -45q100 0 163.5 58.5t64.5 190.5v567z" />
    <glyph glyph-name="Scommaaccent" unicode="&#x218;" horiz-adv-x="1297" 
d="M667 -20q-238 0 -401 110.5t-195 309.5l310 71q15 -119 95.5 -182.5t202.5 -63.5q97 0 158 44.5t60 131.5q0 61 -51 107t-101.5 65.5t-162.5 53.5q-15 5 -22 7q-57 18 -92 30t-86.5 33.5t-84 42t-69.5 52t-58 66.5t-35 83t-14 103q0 131 67.5 227.5t182 145t260.5 48.5
q99 0 188.5 -21t168.5 -64.5t134.5 -119t76.5 -175.5l-290 -72q-39 207 -260 207q-98 0 -161 -42t-63 -127q0 -79 105 -128q49 -24 201 -69q59 -18 96 -30t93 -35t91 -44.5t76 -55.5t64.5 -72t39.5 -89.5t16 -111.5q0 -90 -29 -163t-79.5 -123t-119.5 -84.5t-147 -50
t-165 -15.5zM499 -574l-141 66l168 373h251z" />
    <glyph glyph-name="scommaaccent" unicode="&#x219;" horiz-adv-x="992" 
d="M511 -20q-180 0 -300 72t-147 214l241 68q43 -153 206 -153q63 0 105 23.5t41 79.5q0 31 -17 53t-52.5 38t-70 27t-91.5 26.5t-95 29.5q-52 18 -90.5 38.5t-75 53t-56 80.5t-19.5 110q0 152 111.5 230t291.5 78q160 0 269 -66t138 -206l-223 -50q-42 130 -183 130
q-61 0 -101 -23t-40 -68q0 -17 6 -31t21 -25t29 -19t41 -16.5t45 -13t52.5 -13.5t53.5 -14q55 -15 96.5 -30t88.5 -42t77.5 -60.5t50.5 -85t20 -114.5q0 -85 -34.5 -149t-94.5 -100.5t-133.5 -54t-160.5 -17.5zM347 -573l-141 66l168 373h251z" />
    <glyph glyph-name="uni021A" unicode="&#x21a;" horiz-adv-x="1065" 
d="M1025 1445v-264h-343v-1181h-297v1181h-345v264h985zM239 -508l168 373h251l-278 -439z" />
    <glyph glyph-name="uni021B" unicode="&#x21b;" horiz-adv-x="796" 
d="M532 0q-150 0 -232 83.5t-82 237.5v486h-202v221h65q87 0 128 43t41 153v136h260v-332h212v-221h-212v-455q0 -133 119 -133h93v-219h-190zM432 -574l-141 66l168 373h251z" />
    <glyph glyph-name="uni0237" unicode="&#x237;" horiz-adv-x="591" 
d="M-61 -482v225q67 0 108 14.5t64 51.5t30.5 88.5t7.5 137.5v993h292v-993q0 -269 -117 -393t-385 -124z" />
    <glyph glyph-name="circumflex" unicode="&#x2c6;" horiz-adv-x="711" 
d="M219 1237h-177l227 299h173l227 -299h-177l-137 166z" />
    <glyph glyph-name="caron" unicode="&#x2c7;" horiz-adv-x="716" 
d="M271 1237l-227 299h177l137 -167l136 167h178l-227 -299h-174z" />
    <glyph glyph-name="breve" unicode="&#x2d8;" horiz-adv-x="898" 
d="M448 1185q-166 0 -265 90.5t-99 260.5h180q0 -97 48 -156.5t136 -59.5q89 0 137 59t48 157h181q0 -170 -99.5 -260.5t-266.5 -90.5z" />
    <glyph glyph-name="dotaccent" unicode="&#x2d9;" horiz-adv-x="543" 
d="M272 1182q-69 0 -118 48.5t-49 117.5q0 68 49.5 116.5t117.5 48.5q67 0 116 -48.5t49 -116.5q0 -69 -49 -117.5t-116 -48.5z" />
    <glyph glyph-name="ring" unicode="&#x2da;" horiz-adv-x="660" 
d="M331 1136q-100 0 -170.5 71t-70.5 170q0 97 71 167t170 70q97 0 167 -70t70 -167q0 -99 -70 -170t-167 -71zM331 1258q50 0 84 33.5t34 85.5q0 48 -34.5 84t-83.5 36t-82.5 -36t-33.5 -84q0 -53 33 -86t83 -33z" />
    <glyph glyph-name="ogonek" unicode="&#x2db;" horiz-adv-x="522" 
d="M259 -425q-86 0 -139.5 28t-53.5 81q0 122 253 349l84 -33q-172 -155 -172 -220q0 -36 60 -36q28 0 60 11t52 29v-182q-65 -27 -144 -27z" />
    <glyph glyph-name="tilde" unicode="&#x2dc;" horiz-adv-x="852" 
d="M545 1162q-111 0 -176 102q-25 39 -57 39q-34 0 -52 -35t-18 -93h-137q0 116 54.5 189t147.5 73q112 0 175 -103q24 -38 60 -38q67 0 67 128h138q0 -115 -53.5 -188.5t-148.5 -73.5z" />
    <glyph glyph-name="hungarumlaut" unicode="&#x2dd;" horiz-adv-x="864" 
d="M32 1200l262 368l142 -100l-227 -268h-177zM409 1200l263 368l141 -100l-226 -268h-178z" />
    <glyph glyph-name="gravecomb" unicode="&#x300;" 
d="M-210 1200l-226 268l141 100l263 -368h-178z" />
    <glyph glyph-name="acutecomb" unicode="&#x301;" 
d="M-455 1200l262 368l142 -100l-227 -268h-177z" />
    <glyph glyph-name="uni0302" unicode="&#x302;" 
d="M-492 1237h-177l227 299h173l227 -299h-177l-137 166z" />
    <glyph glyph-name="tildecomb" unicode="&#x303;" 
d="M-307 1162q-111 0 -176 102q-25 39 -57 39q-34 0 -52 -35t-18 -93h-137q0 116 54.5 189t147.5 73q112 0 175 -103q24 -38 60 -38q67 0 67 128h138q0 -115 -53.5 -188.5t-148.5 -73.5z" />
    <glyph glyph-name="uni0304" unicode="&#x304;" 
d="M-809 1228v170h664v-170h-664z" />
    <glyph glyph-name="uni0306" unicode="&#x306;" 
d="M-450 1185q-166 0 -265 90.5t-99 260.5h180q0 -97 48 -156.5t136 -59.5q89 0 137 59t48 157h181q0 -170 -99.5 -260.5t-266.5 -90.5z" />
    <glyph glyph-name="uni0307" unicode="&#x307;" 
d="M-271 1182q-69 0 -118 48.5t-49 117.5q0 68 49.5 116.5t117.5 48.5q67 0 116 -48.5t49 -116.5q0 -69 -49 -117.5t-116 -48.5z" />
    <glyph glyph-name="uni0308" unicode="&#x308;" 
d="M-702 1182q-69 0 -118 48.5t-49 117.5q0 68 49.5 116.5t117.5 48.5q67 0 116 -48.5t49 -116.5q0 -69 -49 -117.5t-116 -48.5zM-271 1182q-69 0 -118 48.5t-49 117.5q0 68 49 116.5t118 48.5q67 0 116 -48.5t49 -116.5q0 -69 -49 -117.5t-116 -48.5z" />
    <glyph glyph-name="hookabovecomb" unicode="&#x309;" 
d="M-348 1140v135q111 21 111 97q0 31 -17.5 50t-51.5 19q-47 0 -86 -39l-67 97q69 57 169 57q92 0 144 -48t52 -127q0 -118 -126 -157v-84h-128z" />
    <glyph glyph-name="uni030A" unicode="&#x30a;" 
d="M-329 1136q-100 0 -170.5 71t-70.5 170q0 97 71 167t170 70q97 0 167 -70t70 -167q0 -99 -70 -170t-167 -71zM-329 1258q50 0 84 33.5t34 85.5q0 48 -34.5 84t-83.5 36t-82.5 -36t-33.5 -84q0 -53 33 -86t83 -33z" />
    <glyph glyph-name="uni030B" unicode="&#x30b;" 
d="M-832 1200l262 368l142 -100l-227 -268h-177zM-455 1200l263 368l141 -100l-226 -268h-178z" />
    <glyph glyph-name="uni030C" unicode="&#x30c;" 
d="M-445 1237l-227 299h177l137 -167l136 167h178l-227 -299h-174z" />
    <glyph glyph-name="uni0312" unicode="&#x312;" 
d="M-293 1533h206l-125 -327h-296z" />
    <glyph glyph-name="uni031B" unicode="&#x31b;" 
d="M-311 755q-99 0 -200 63l50 95q52 -28 98 -28q55 0 75.5 30t20.5 110v127h141v-166q0 -125 -51.5 -178t-133.5 -53z" />
    <glyph glyph-name="dotbelowcomb" unicode="&#x323;" 
d="M-271 -512q-69 0 -118 48.5t-49 117.5q0 67 49.5 115.5t117.5 48.5q67 0 116 -48.5t49 -115.5q0 -69 -49 -117.5t-116 -48.5z" />
    <glyph glyph-name="uni0326" unicode="&#x326;" 
d="M-309 -574l-141 66l168 373h251z" />
    <glyph glyph-name="uni0327" unicode="&#x327;" 
d="M-293 -532q-85 0 -149.5 43t-89.5 108l127 44q15 -29 44.5 -46.5t61.5 -17.5q39 0 66.5 25.5t27.5 66.5q0 43 -27.5 67t-68.5 24q-46 0 -74 -31l-105 62l122 223h137l-90 -159q30 6 45 6q85 0 140.5 -54t55.5 -138q0 -94 -64.5 -158.5t-158.5 -64.5z" />
    <glyph glyph-name="uni0328" unicode="&#x328;" 
d="M-263 -425q-86 0 -139.5 28t-53.5 81q0 122 253 349l84 -33q-172 -155 -172 -220q0 -36 60 -36q28 0 60 11t52 29v-182q-65 -27 -144 -27z" />
    <glyph glyph-name="uni0335" unicode="&#x335;" 
d="M-836 428v176h689v-176h-689z" />
    <glyph glyph-name="uni0336" unicode="&#x336;" 
d="M-1662 474v117h1517v-117h-1517z" />
    <glyph glyph-name="uni0337" unicode="&#x337;" 
d="M-673 248v181l635 472v-183z" />
    <glyph glyph-name="uni0338" unicode="&#x338;" 
d="M-908 208l806 1157l115 -69l-806 -1157z" />
    <glyph glyph-name="uni0394" unicode="&#x394;" horiz-adv-x="1598" 
d="M954 1536l617 -1536h-1543l616 1536h310zM431 269h737l-368 957z" />
    <glyph glyph-name="uni03A9" unicode="&#x3a9;" horiz-adv-x="1776" 
d="M104 0v248h273v3q-93 90 -163.5 247.5t-70.5 335.5q0 149 54 280t150.5 227t237.5 151t307 55q141 0 262 -39.5t208 -107.5t149 -159t92 -194t30 -211q0 -172 -69 -331t-173 -255v-2h279v-248h-670v190q136 79 221.5 232t85.5 367q0 227 -109.5 366.5t-303.5 139.5
q-188 0 -307 -136.5t-119 -370.5q0 -214 89 -373t221 -225v-190h-674z" />
    <glyph glyph-name="uni03BC" unicode="&#x3bc;" horiz-adv-x="1236" 
d="M802 978h289v-978h-289v107q-114 -125 -278 -125q-91 0 -169 40v-487h-210v1443h290v-568q0 -74 50.5 -125t123.5 -51q81 0 137 51t56 125v568z" />
    <glyph glyph-name="pi" unicode="&#x3c0;" horiz-adv-x="1306" 
d="M136 0q51 153 90 377t41 378q-151 0 -216 -19l-29 165q86 63 349 63h906l-22 -209h-152v-464q0 -183 27 -291h-262q-35 50 -35 276v479l-301 -1q-8 -174 -45.5 -404.5t-87.5 -349.5h-263z" />
    <glyph glyph-name="Wgrave" unicode="&#x1e80;" horiz-adv-x="2175" 
d="M998 1580l-226 267l141 101l263 -368h-178zM422 0l-378 1445h312l282 -1094l323 1094h253l321 -1094l285 1094h311l-378 -1445h-386l-280 893l-279 -893h-386z" />
    <glyph glyph-name="wgrave" unicode="&#x1e81;" horiz-adv-x="1752" 
d="M976 1169h-178l-226 268l141 100zM1443 1028h298l-360 -1029h-267l-238 679l-240 -679h-271l-353 1029h297l212 -669l243 669h221l242 -667z" />
    <glyph glyph-name="Wacute" unicode="&#x1e82;" horiz-adv-x="2175" 
d="M998 1580l262 368l142 -101l-227 -267h-177zM422 0l-378 1445h312l282 -1094l323 1094h253l321 -1094l285 1094h311l-378 -1445h-386l-280 893l-279 -893h-386z" />
    <glyph glyph-name="wacute" unicode="&#x1e83;" horiz-adv-x="1752" 
d="M1202 1437l-227 -268h-177l262 368zM1443 1028h298l-360 -1029h-267l-238 679l-240 -679h-271l-353 1029h297l212 -669l243 669h221l242 -667z" />
    <glyph glyph-name="Wdieresis" unicode="&#x1e84;" horiz-adv-x="2175" 
d="M872 1536q-69 0 -118 48.5t-49 117.5q0 68 49 116t118 48q67 0 116 -48t49 -116q0 -69 -49 -117.5t-116 -48.5zM1303 1536q-69 0 -118 48.5t-49 117.5q0 68 49 116t118 48q67 0 116 -48t49 -116q0 -69 -49 -117.5t-116 -48.5zM422 0l-378 1445h312l282 -1094l323 1094
h253l321 -1094l285 1094h311l-378 -1445h-386l-280 893l-279 -893h-386z" />
    <glyph glyph-name="wdieresis" unicode="&#x1e85;" horiz-adv-x="1752" 
d="M672 1182q-69 0 -118 48.5t-49 117.5q0 68 49.5 116.5t117.5 48.5q67 0 116 -48.5t49 -116.5q0 -69 -49 -117.5t-116 -48.5zM1103 1182q-69 0 -118 48.5t-49 117.5q0 68 49 116.5t118 48.5q67 0 116 -48.5t49 -116.5q0 -69 -49 -117.5t-116 -48.5zM1443 1028h298
l-360 -1029h-267l-238 679l-240 -679h-271l-353 1029h297l212 -669l243 669h221l242 -667z" />
    <glyph glyph-name="uni1EA0" unicode="&#x1ea0;" horiz-adv-x="1491" 
d="M1461 0h-307l-105 298h-607l-105 -298h-307l532 1445h367zM530 549h431l-215 613zM747 -182q67 0 116 -48.5t49 -115.5q0 -69 -49 -117.5t-116 -48.5q-69 0 -118 48.5t-49 117.5q0 67 49.5 115.5t117.5 48.5z" />
    <glyph glyph-name="uni1EA1" unicode="&#x1ea1;" horiz-adv-x="1123" 
d="M992 279q0 -164 25 -251v-28h-269l-23 112q-55 -66 -144 -99t-186 -33q-51 0 -96 9t-86.5 30.5t-71.5 53.5t-48 81.5t-18 111.5t19 111.5t50 83.5t81 61t102 44t122 32l169 38q54 13 76.5 32.5t22.5 51.5q0 69 -50.5 99t-122.5 30q-177 0 -201 -157l-255 46
q32 159 149 234.5t323 75.5q432 0 432 -371v-398zM485 175q109 0 178 74.5t69 220.5l-244 -69q-67 -16 -102.5 -42t-35.5 -74q0 -53 38 -81.5t97 -28.5zM617 -182q67 0 116 -48.5t49 -115.5q0 -69 -49 -117.5t-116 -48.5q-69 0 -118 48.5t-49 117.5q0 67 49.5 115.5
t117.5 48.5z" />
    <glyph glyph-name="uni1EA2" unicode="&#x1ea2;" horiz-adv-x="1491" 
d="M728 1836q-47 0 -86 -38l-67 96q68 58 169 58q92 0 144 -48t52 -128q0 -118 -126 -157v-83h-128v135q111 19 111 97q0 30 -17.5 49t-51.5 19zM1154 0l-105 298h-607l-105 -298h-307l532 1445h367l532 -1445h-307zM530 549h431l-215 613z" />
    <glyph glyph-name="uni1EA3" unicode="&#x1ea3;" horiz-adv-x="1123" 
d="M547 1410q-47 0 -86 -39l-67 97q69 57 169 57q92 0 144 -48t52 -127q0 -118 -126 -157v-84h-128v135q111 21 111 97q0 31 -17.5 50t-51.5 19zM992 279q0 -164 25 -251v-28h-269l-23 112q-55 -66 -144 -99t-186 -33q-51 0 -96 9t-86.5 30.5t-71.5 53.5t-48 81.5t-18 111.5
t19 111.5t50 83.5t81 61t102 44t122 32l169 38q54 13 76.5 32.5t22.5 51.5q0 69 -50.5 99t-122.5 30q-177 0 -201 -157l-255 46q32 159 149 234.5t323 75.5q432 0 432 -371v-398zM485 175q109 0 178 74.5t69 220.5l-244 -69q-67 -16 -102.5 -42t-35.5 -74q0 -53 38 -81.5
t97 -28.5z" />
    <glyph glyph-name="uni1EA4" unicode="&#x1ea4;" horiz-adv-x="1491" 
d="M1060 2237l-227 -267h-177l262 368zM745 1746l-136 -166h-177l227 299h173l227 -299h-177zM1154 0l-105 298h-607l-105 -298h-307l532 1445h367l532 -1445h-307zM530 549h431l-215 613z" />
    <glyph glyph-name="uni1EA5" unicode="&#x1ea5;" horiz-adv-x="1123" 
d="M879 1914l-227 -268h-177l262 368zM564 1372l-136 -166h-177l227 299h173l227 -299h-177zM992 279q0 -164 25 -251v-28h-269l-23 112q-55 -66 -144 -99t-186 -33q-51 0 -96 9t-86.5 30.5t-71.5 53.5t-48 81.5t-18 111.5t19 111.5t50 83.5t81 61t102 44t122 32l169 38
q54 13 76.5 32.5t22.5 51.5q0 69 -50.5 99t-122.5 30q-177 0 -201 -157l-255 46q32 159 149 234.5t323 75.5q432 0 432 -371v-398zM485 175q109 0 178 74.5t69 220.5l-244 -69q-67 -16 -102.5 -42t-35.5 -74q0 -53 38 -81.5t97 -28.5z" />
    <glyph glyph-name="uni1EA6" unicode="&#x1ea6;" horiz-adv-x="1491" 
d="M834 1970h-178l-226 267l141 101zM659 1879h173l227 -299h-177l-137 166l-136 -166h-177zM1154 0l-105 298h-607l-105 -298h-307l532 1445h367l532 -1445h-307zM530 549h431l-215 613z" />
    <glyph glyph-name="uni1EA7" unicode="&#x1ea7;" horiz-adv-x="1123" 
d="M653 1646h-178l-226 268l141 100zM478 1505h173l227 -299h-177l-137 166l-136 -166h-177zM992 279q0 -164 25 -251v-28h-269l-23 112q-55 -66 -144 -99t-186 -33q-51 0 -96 9t-86.5 30.5t-71.5 53.5t-48 81.5t-18 111.5t19 111.5t50 83.5t81 61t102 44t122 32l169 38
q54 13 76.5 32.5t22.5 51.5q0 69 -50.5 99t-122.5 30q-177 0 -201 -157l-255 46q32 159 149 234.5t323 75.5q432 0 432 -371v-398zM485 175q109 0 178 74.5t69 220.5l-244 -69q-67 -16 -102.5 -42t-35.5 -74q0 -53 38 -81.5t97 -28.5z" />
    <glyph glyph-name="uni1EA8" unicode="&#x1ea8;" horiz-adv-x="1491" 
d="M727 2226q-47 0 -86 -38l-67 96q68 58 169 58q92 0 144 -48t52 -128q0 -118 -126 -157v-83h-128v135q111 19 111 97q0 30 -17.5 49t-51.5 19zM745 1746l-136 -166h-177l227 299h173l227 -299h-177zM1154 0l-105 298h-607l-105 -298h-307l532 1445h367l532 -1445h-307z
M530 549h431l-215 613z" />
    <glyph glyph-name="uni1EA9" unicode="&#x1ea9;" horiz-adv-x="1123" 
d="M546 1887q-47 0 -86 -39l-67 97q69 57 169 57q92 0 144 -48t52 -127q0 -118 -126 -157v-84h-128v135q111 21 111 97q0 31 -17.5 50t-51.5 19zM564 1372l-136 -166h-177l227 299h173l227 -299h-177zM992 279q0 -164 25 -251v-28h-269l-23 112q-55 -66 -144 -99t-186 -33
q-51 0 -96 9t-86.5 30.5t-71.5 53.5t-48 81.5t-18 111.5t19 111.5t50 83.5t81 61t102 44t122 32l169 38q54 13 76.5 32.5t22.5 51.5q0 69 -50.5 99t-122.5 30q-177 0 -201 -157l-255 46q32 159 149 234.5t323 75.5q432 0 432 -371v-398zM485 175q109 0 178 74.5t69 220.5
l-244 -69q-67 -16 -102.5 -42t-35.5 -74q0 -53 38 -81.5t97 -28.5z" />
    <glyph glyph-name="uni1EAA" unicode="&#x1eaa;" horiz-adv-x="1491" 
d="M629 2130q-41 0 -62.5 -38t-21.5 -99h-151q0 118 62 192.5t168 74.5q103 0 168 -73q6 -7 22.5 -26t24.5 -26.5t23.5 -15.5t31.5 -8q78 0 78 135h153q0 -117 -60.5 -191.5t-170.5 -74.5q-63 0 -101 21.5t-69 58.5q-3 3 -12 14.5t-12 15.5t-11 12.5t-13 11.5t-13 8
t-16.5 6.5t-17.5 1.5zM659 1879h173l227 -299h-177l-137 166l-136 -166h-177zM1154 0l-105 298h-607l-105 -298h-307l532 1445h367l532 -1445h-307zM530 549h431l-215 613z" />
    <glyph glyph-name="uni1EAB" unicode="&#x1eab;" horiz-adv-x="1123" 
d="M464 1780q-34 0 -52 -35t-18 -93h-137q0 116 54.5 189t147.5 73q112 0 175 -103q24 -38 60 -38q67 0 67 128h138q0 -115 -53.5 -188.5t-148.5 -73.5q-111 0 -176 102q-25 39 -57 39zM564 1372l-136 -166h-177l227 299h173l227 -299h-177zM992 279q0 -164 25 -251v-28
h-269l-23 112q-55 -66 -144 -99t-186 -33q-51 0 -96 9t-86.5 30.5t-71.5 53.5t-48 81.5t-18 111.5t19 111.5t50 83.5t81 61t102 44t122 32l169 38q54 13 76.5 32.5t22.5 51.5q0 69 -50.5 99t-122.5 30q-177 0 -201 -157l-255 46q32 159 149 234.5t323 75.5q432 0 432 -371
v-398zM485 175q109 0 178 74.5t69 220.5l-244 -69q-67 -16 -102.5 -42t-35.5 -74q0 -53 38 -81.5t97 -28.5z" />
    <glyph glyph-name="uni1EAC" unicode="&#x1eac;" horiz-adv-x="1491" 
d="M745 1746l-136 -166h-177l227 299h173l227 -299h-177zM1461 0h-307l-105 298h-607l-105 -298h-307l532 1445h367zM530 549h431l-215 613zM747 -182q67 0 116 -48.5t49 -115.5q0 -69 -49 -117.5t-116 -48.5q-69 0 -118 48.5t-49 117.5q0 67 49.5 115.5t117.5 48.5z" />
    <glyph glyph-name="uni1EAD" unicode="&#x1ead;" horiz-adv-x="1123" 
d="M564 1372l-136 -166h-177l227 299h173l227 -299h-177zM992 279q0 -164 25 -251v-28h-269l-23 112q-55 -66 -144 -99t-186 -33q-51 0 -96 9t-86.5 30.5t-71.5 53.5t-48 81.5t-18 111.5t19 111.5t50 83.5t81 61t102 44t122 32l169 38q54 13 76.5 32.5t22.5 51.5
q0 69 -50.5 99t-122.5 30q-177 0 -201 -157l-255 46q32 159 149 234.5t323 75.5q432 0 432 -371v-398zM485 175q109 0 178 74.5t69 220.5l-244 -69q-67 -16 -102.5 -42t-35.5 -74q0 -53 38 -81.5t97 -28.5zM617 -182q67 0 116 -48.5t49 -115.5q0 -69 -49 -117.5t-116 -48.5
q-69 0 -118 48.5t-49 117.5q0 67 49.5 115.5t117.5 48.5z" />
    <glyph glyph-name="uni1EAE" unicode="&#x1eae;" horiz-adv-x="1491" 
d="M1062 2213l-227 -267h-177l262 368zM745 1580q-364 0 -364 295h166q0 -81 52.5 -121t145.5 -40q95 0 147.5 39.5t52.5 121.5h166q0 -295 -366 -295zM1154 0l-105 298h-607l-105 -298h-307l532 1445h367l532 -1445h-307zM530 549h431l-215 613z" />
    <glyph glyph-name="uni1EAF" unicode="&#x1eaf;" horiz-adv-x="1123" 
d="M880 1914l-227 -268h-177l262 368zM565 1154q-166 0 -265 90.5t-99 260.5h180q0 -97 48 -156.5t136 -59.5q89 0 137 59t48 157h181q0 -170 -99.5 -260.5t-266.5 -90.5zM992 279q0 -164 25 -251v-28h-269l-23 112q-55 -66 -144 -99t-186 -33q-51 0 -96 9t-86.5 30.5
t-71.5 53.5t-48 81.5t-18 111.5t19 111.5t50 83.5t81 61t102 44t122 32l169 38q54 13 76.5 32.5t22.5 51.5q0 69 -50.5 99t-122.5 30q-177 0 -201 -157l-255 46q32 159 149 234.5t323 75.5q432 0 432 -371v-398zM485 175q109 0 178 74.5t69 220.5l-244 -69
q-67 -16 -102.5 -42t-35.5 -74q0 -53 38 -81.5t97 -28.5z" />
    <glyph glyph-name="uni1EB0" unicode="&#x1eb0;" horiz-adv-x="1491" 
d="M836 1946h-178l-226 267l141 101zM745 1580q-364 0 -364 295h166q0 -81 52.5 -121t145.5 -40q95 0 147.5 39.5t52.5 121.5h166q0 -295 -366 -295zM1154 0l-105 298h-607l-105 -298h-307l532 1445h367l532 -1445h-307zM530 549h431l-215 613z" />
    <glyph glyph-name="uni1EB1" unicode="&#x1eb1;" horiz-adv-x="1123" 
d="M654 1646h-178l-226 268l141 100zM565 1154q-166 0 -265 90.5t-99 260.5h180q0 -97 48 -156.5t136 -59.5q89 0 137 59t48 157h181q0 -170 -99.5 -260.5t-266.5 -90.5zM992 279q0 -164 25 -251v-28h-269l-23 112q-55 -66 -144 -99t-186 -33q-51 0 -96 9t-86.5 30.5
t-71.5 53.5t-48 81.5t-18 111.5t19 111.5t50 83.5t81 61t102 44t122 32l169 38q54 13 76.5 32.5t22.5 51.5q0 69 -50.5 99t-122.5 30q-177 0 -201 -157l-255 46q32 159 149 234.5t323 75.5q432 0 432 -371v-398zM485 175q109 0 178 74.5t69 220.5l-244 -69
q-67 -16 -102.5 -42t-35.5 -74q0 -53 38 -81.5t97 -28.5z" />
    <glyph glyph-name="uni1EB2" unicode="&#x1eb2;" horiz-adv-x="1491" 
d="M729 2202q-47 0 -86 -38l-67 96q68 58 169 58q92 0 144 -48t52 -128q0 -118 -126 -157v-83h-128v135q111 19 111 97q0 30 -17.5 49t-51.5 19zM745 1580q-364 0 -364 295h166q0 -81 52.5 -121t145.5 -40q95 0 147.5 39.5t52.5 121.5h166q0 -295 -366 -295zM1154 0
l-105 298h-607l-105 -298h-307l532 1445h367l532 -1445h-307zM530 549h431l-215 613z" />
    <glyph glyph-name="uni1EB3" unicode="&#x1eb3;" horiz-adv-x="1123" 
d="M547 1887q-47 0 -86 -39l-67 97q69 57 169 57q92 0 144 -48t52 -127q0 -118 -126 -157v-84h-128v135q111 21 111 97q0 31 -17.5 50t-51.5 19zM565 1154q-166 0 -265 90.5t-99 260.5h180q0 -97 48 -156.5t136 -59.5q89 0 137 59t48 157h181q0 -170 -99.5 -260.5
t-266.5 -90.5zM992 279q0 -164 25 -251v-28h-269l-23 112q-55 -66 -144 -99t-186 -33q-51 0 -96 9t-86.5 30.5t-71.5 53.5t-48 81.5t-18 111.5t19 111.5t50 83.5t81 61t102 44t122 32l169 38q54 13 76.5 32.5t22.5 51.5q0 69 -50.5 99t-122.5 30q-177 0 -201 -157l-255 46
q32 159 149 234.5t323 75.5q432 0 432 -371v-398zM485 175q109 0 178 74.5t69 220.5l-244 -69q-67 -16 -102.5 -42t-35.5 -74q0 -53 38 -81.5t97 -28.5z" />
    <glyph glyph-name="uni1EB4" unicode="&#x1eb4;" horiz-adv-x="1491" 
d="M631 2106q-41 0 -62.5 -38t-21.5 -99h-151q0 118 62 192.5t168 74.5q103 0 168 -73q6 -7 22.5 -26t24.5 -26.5t23.5 -15.5t31.5 -8q78 0 78 135h153q0 -117 -60.5 -191.5t-170.5 -74.5q-63 0 -101 21.5t-69 58.5q-3 3 -12 14.5t-12 15.5t-11 12.5t-13 11.5t-13 8
t-16.5 6.5t-17.5 1.5zM745 1580q-364 0 -364 295h166q0 -81 52.5 -121t145.5 -40q95 0 147.5 39.5t52.5 121.5h166q0 -295 -366 -295zM1154 0l-105 298h-607l-105 -298h-307l532 1445h367l532 -1445h-307zM530 549h431l-215 613z" />
    <glyph glyph-name="uni1EB5" unicode="&#x1eb5;" horiz-adv-x="1123" 
d="M465 1780q-34 0 -52 -35t-18 -93h-137q0 116 54.5 189t147.5 73q112 0 175 -103q24 -38 60 -38q67 0 67 128h138q0 -115 -53.5 -188.5t-148.5 -73.5q-111 0 -176 102q-25 39 -57 39zM565 1154q-166 0 -265 90.5t-99 260.5h180q0 -97 48 -156.5t136 -59.5q89 0 137 59
t48 157h181q0 -170 -99.5 -260.5t-266.5 -90.5zM992 279q0 -164 25 -251v-28h-269l-23 112q-55 -66 -144 -99t-186 -33q-51 0 -96 9t-86.5 30.5t-71.5 53.5t-48 81.5t-18 111.5t19 111.5t50 83.5t81 61t102 44t122 32l169 38q54 13 76.5 32.5t22.5 51.5q0 69 -50.5 99
t-122.5 30q-177 0 -201 -157l-255 46q32 159 149 234.5t323 75.5q432 0 432 -371v-398zM485 175q109 0 178 74.5t69 220.5l-244 -69q-67 -16 -102.5 -42t-35.5 -74q0 -53 38 -81.5t97 -28.5z" />
    <glyph glyph-name="uni1EB6" unicode="&#x1eb6;" horiz-adv-x="1491" 
d="M745 1580q-364 0 -364 295h166q0 -81 52.5 -121t145.5 -40q95 0 147.5 39.5t52.5 121.5h166q0 -295 -366 -295zM1461 0h-307l-105 298h-607l-105 -298h-307l532 1445h367zM530 549h431l-215 613zM747 -182q67 0 116 -48.5t49 -115.5q0 -69 -49 -117.5t-116 -48.5
q-69 0 -118 48.5t-49 117.5q0 67 49.5 115.5t117.5 48.5z" />
    <glyph glyph-name="uni1EB7" unicode="&#x1eb7;" horiz-adv-x="1123" 
d="M565 1154q-166 0 -265 90.5t-99 260.5h180q0 -97 48 -156.5t136 -59.5q89 0 137 59t48 157h181q0 -170 -99.5 -260.5t-266.5 -90.5zM992 279q0 -164 25 -251v-28h-269l-23 112q-55 -66 -144 -99t-186 -33q-51 0 -96 9t-86.5 30.5t-71.5 53.5t-48 81.5t-18 111.5t19 111.5
t50 83.5t81 61t102 44t122 32l169 38q54 13 76.5 32.5t22.5 51.5q0 69 -50.5 99t-122.5 30q-177 0 -201 -157l-255 46q32 159 149 234.5t323 75.5q432 0 432 -371v-398zM485 175q109 0 178 74.5t69 220.5l-244 -69q-67 -16 -102.5 -42t-35.5 -74q0 -53 38 -81.5t97 -28.5z
M617 -182q67 0 116 -48.5t49 -115.5q0 -69 -49 -117.5t-116 -48.5q-69 0 -118 48.5t-49 117.5q0 67 49.5 115.5t117.5 48.5z" />
    <glyph glyph-name="uni1EB8" unicode="&#x1eb8;" horiz-adv-x="1147" 
d="M1025 1181h-536v-328h475v-261h-475v-327h536v-265h-838v1445h838v-264zM614 -182q67 0 116 -48.5t49 -115.5q0 -69 -49 -117.5t-116 -48.5q-69 0 -118 48.5t-49 117.5q0 67 49.5 115.5t117.5 48.5z" />
    <glyph glyph-name="uni1EB9" unicode="&#x1eb9;" horiz-adv-x="1186" 
d="M1116 529l-3 -69h-762q9 -123 82 -188t181 -65q78 0 135.5 35.5t86.5 103.5l264 -39q-51 -155 -180 -241t-304 -86q-252 0 -400.5 141.5t-148.5 392.5q0 249 149 392.5t391 143.5q230 0 369 -131t140 -390zM609 846q-210 0 -250 -198h472q-11 96 -71 147t-151 51z
M629 -183q67 0 116 -48.5t49 -115.5q0 -69 -49 -117.5t-116 -48.5q-69 0 -118 48.5t-49 117.5q0 67 49.5 115.5t117.5 48.5z" />
    <glyph glyph-name="uni1EBA" unicode="&#x1eba;" horiz-adv-x="1147" 
d="M595 1836q-47 0 -86 -38l-67 96q68 58 169 58q92 0 144 -48t52 -128q0 -118 -126 -157v-83h-128v135q111 19 111 97q0 30 -17.5 49t-51.5 19zM1025 1181h-536v-328h475v-261h-475v-327h536v-265h-838v1445h838v-264z" />
    <glyph glyph-name="uni1EBB" unicode="&#x1ebb;" horiz-adv-x="1186" 
d="M598 1413q-47 0 -86 -39l-67 97q69 57 169 57q92 0 144 -48t52 -127q0 -118 -126 -157v-84h-128v135q111 21 111 97q0 31 -17.5 50t-51.5 19zM1116 529l-3 -69h-762q9 -123 82 -188t181 -65q78 0 135.5 35.5t86.5 103.5l264 -39q-51 -155 -180 -241t-304 -86
q-252 0 -400.5 141.5t-148.5 392.5q0 249 149 392.5t391 143.5q230 0 369 -131t140 -390zM609 846q-210 0 -250 -198h472q-11 96 -71 147t-151 51z" />
    <glyph glyph-name="uni1EBC" unicode="&#x1ebc;" horiz-adv-x="1147" 
d="M497 1740q-41 0 -62.5 -38t-21.5 -99h-151q0 118 62 192.5t168 74.5q103 0 168 -73q6 -7 22.5 -26t24.5 -26.5t23.5 -15.5t31.5 -8q78 0 78 135h153q0 -117 -60.5 -191.5t-170.5 -74.5q-63 0 -101 21.5t-69 58.5q-3 3 -12 14.5t-12 15.5t-11 12.5t-13 11.5t-13 8
t-16.5 6.5t-17.5 1.5zM1025 1181h-536v-328h475v-261h-475v-327h536v-265h-838v1445h838v-264z" />
    <glyph glyph-name="uni1EBD" unicode="&#x1ebd;" horiz-adv-x="1186" 
d="M516 1306q-34 0 -52 -35t-18 -93h-137q0 116 54.5 189t147.5 73q112 0 175 -103q24 -38 60 -38q67 0 67 128h138q0 -115 -53.5 -188.5t-148.5 -73.5q-111 0 -176 102q-25 39 -57 39zM1116 529l-3 -69h-762q9 -123 82 -188t181 -65q78 0 135.5 35.5t86.5 103.5l264 -39
q-51 -155 -180 -241t-304 -86q-252 0 -400.5 141.5t-148.5 392.5q0 249 149 392.5t391 143.5q230 0 369 -131t140 -390zM609 846q-210 0 -250 -198h472q-11 96 -71 147t-151 51z" />
    <glyph glyph-name="uni1EBE" unicode="&#x1ebe;" horiz-adv-x="1147" 
d="M927 2237l-227 -267h-177l262 368zM612 1746l-136 -166h-177l227 299h173l227 -299h-177zM1025 1181h-536v-328h475v-261h-475v-327h536v-265h-838v1445h838v-264z" />
    <glyph glyph-name="uni1EBF" unicode="&#x1ebf;" horiz-adv-x="1186" 
d="M930 1917l-227 -268h-177l262 368zM615 1375l-136 -166h-177l227 299h173l227 -299h-177zM1116 529l-3 -69h-762q9 -123 82 -188t181 -65q78 0 135.5 35.5t86.5 103.5l264 -39q-51 -155 -180 -241t-304 -86q-252 0 -400.5 141.5t-148.5 392.5q0 249 149 392.5t391 143.5
q230 0 369 -131t140 -390zM609 846q-210 0 -250 -198h472q-11 96 -71 147t-151 51z" />
    <glyph glyph-name="uni1EC0" unicode="&#x1ec0;" horiz-adv-x="1147" 
d="M701 1970h-178l-226 267l141 101zM526 1879h173l227 -299h-177l-137 166l-136 -166h-177zM1025 1181h-536v-328h475v-261h-475v-327h536v-265h-838v1445h838v-264z" />
    <glyph glyph-name="uni1EC1" unicode="&#x1ec1;" horiz-adv-x="1186" 
d="M704 1649h-178l-226 268l141 100zM529 1508h173l227 -299h-177l-137 166l-136 -166h-177zM1116 529l-3 -69h-762q9 -123 82 -188t181 -65q78 0 135.5 35.5t86.5 103.5l264 -39q-51 -155 -180 -241t-304 -86q-252 0 -400.5 141.5t-148.5 392.5q0 249 149 392.5t391 143.5
q230 0 369 -131t140 -390zM609 846q-210 0 -250 -198h472q-11 96 -71 147t-151 51z" />
    <glyph glyph-name="uni1EC2" unicode="&#x1ec2;" horiz-adv-x="1147" 
d="M594 2226q-47 0 -86 -38l-67 96q68 58 169 58q92 0 144 -48t52 -128q0 -118 -126 -157v-83h-128v135q111 19 111 97q0 30 -17.5 49t-51.5 19zM612 1746l-136 -166h-177l227 299h173l227 -299h-177zM1025 1181h-536v-328h475v-261h-475v-327h536v-265h-838v1445h838v-264z
" />
    <glyph glyph-name="uni1EC3" unicode="&#x1ec3;" horiz-adv-x="1186" 
d="M597 1890q-47 0 -86 -39l-67 97q69 57 169 57q92 0 144 -48t52 -127q0 -118 -126 -157v-84h-128v135q111 21 111 97q0 31 -17.5 50t-51.5 19zM615 1375l-136 -166h-177l227 299h173l227 -299h-177zM1116 529l-3 -69h-762q9 -123 82 -188t181 -65q78 0 135.5 35.5
t86.5 103.5l264 -39q-51 -155 -180 -241t-304 -86q-252 0 -400.5 141.5t-148.5 392.5q0 249 149 392.5t391 143.5q230 0 369 -131t140 -390zM609 846q-210 0 -250 -198h472q-11 96 -71 147t-151 51z" />
    <glyph glyph-name="uni1EC4" unicode="&#x1ec4;" horiz-adv-x="1147" 
d="M496 2130q-41 0 -62.5 -38t-21.5 -99h-151q0 118 62 192.5t168 74.5q103 0 168 -73q6 -7 22.5 -26t24.5 -26.5t23.5 -15.5t31.5 -8q78 0 78 135h153q0 -117 -60.5 -191.5t-170.5 -74.5q-63 0 -101 21.5t-69 58.5q-3 3 -12 14.5t-12 15.5t-11 12.5t-13 11.5t-13 8
t-16.5 6.5t-17.5 1.5zM526 1879h173l227 -299h-177l-137 166l-136 -166h-177zM1025 1181h-536v-328h475v-261h-475v-327h536v-265h-838v1445h838v-264z" />
    <glyph glyph-name="uni1EC5" unicode="&#x1ec5;" horiz-adv-x="1186" 
d="M515 1783q-34 0 -52 -35t-18 -93h-137q0 116 54.5 189t147.5 73q112 0 175 -103q24 -38 60 -38q67 0 67 128h138q0 -115 -53.5 -188.5t-148.5 -73.5q-111 0 -176 102q-25 39 -57 39zM615 1375l-136 -166h-177l227 299h173l227 -299h-177zM1116 529l-3 -69h-762
q9 -123 82 -188t181 -65q78 0 135.5 35.5t86.5 103.5l264 -39q-51 -155 -180 -241t-304 -86q-252 0 -400.5 141.5t-148.5 392.5q0 249 149 392.5t391 143.5q230 0 369 -131t140 -390zM609 846q-210 0 -250 -198h472q-11 96 -71 147t-151 51z" />
    <glyph glyph-name="uni1EC6" unicode="&#x1ec6;" horiz-adv-x="1147" 
d="M612 1746l-136 -166h-177l227 299h173l227 -299h-177zM1025 1181h-536v-328h475v-261h-475v-327h536v-265h-838v1445h838v-264zM614 -182q67 0 116 -48.5t49 -115.5q0 -69 -49 -117.5t-116 -48.5q-69 0 -118 48.5t-49 117.5q0 67 49.5 115.5t117.5 48.5z" />
    <glyph glyph-name="uni1EC7" unicode="&#x1ec7;" horiz-adv-x="1186" 
d="M615 1375l-136 -166h-177l227 299h173l227 -299h-177zM1116 529l-3 -69h-762q9 -123 82 -188t181 -65q78 0 135.5 35.5t86.5 103.5l264 -39q-51 -155 -180 -241t-304 -86q-252 0 -400.5 141.5t-148.5 392.5q0 249 149 392.5t391 143.5q230 0 369 -131t140 -390zM609 846
q-210 0 -250 -198h472q-11 96 -71 147t-151 51zM629 -183q67 0 116 -48.5t49 -115.5q0 -69 -49 -117.5t-116 -48.5q-69 0 -118 48.5t-49 117.5q0 67 49.5 115.5t117.5 48.5z" />
    <glyph glyph-name="uni1EC8" unicode="&#x1ec8;" horiz-adv-x="673" 
d="M275 1536v135q111 19 111 97q0 30 -17.5 49t-51.5 19q-47 0 -86 -38l-67 96q68 58 169 58q92 0 144 -48t52 -128q0 -118 -126 -157v-83h-128zM187 0v1445h300v-1445h-300z" />
    <glyph glyph-name="uni1EC9" unicode="&#x1ec9;" horiz-adv-x="588" 
d="M235 1109v135q111 21 111 97q0 31 -17.5 50t-51.5 19q-47 0 -86 -39l-67 97q69 57 169 57q92 0 144 -48t52 -127q0 -118 -126 -157v-84h-128zM149 0v1028h290v-1028h-290z" />
    <glyph glyph-name="uni1ECA" unicode="&#x1eca;" horiz-adv-x="673" 
d="M187 0v1445h300v-1445h-300zM336 -512q-69 0 -118 48.5t-49 117.5q0 67 49.5 115.5t117.5 48.5q67 0 116 -48.5t49 -115.5q0 -69 -49 -117.5t-116 -48.5z" />
    <glyph glyph-name="uni1ECB" unicode="&#x1ecb;" horiz-adv-x="588" 
d="M296 1182q-69 0 -118 48.5t-49 117.5q0 68 49.5 116.5t117.5 48.5q67 0 116 -48.5t49 -116.5q0 -69 -49 -117.5t-116 -48.5zM149 0v1028h290v-1028h-290zM296 -512q-69 0 -118 48.5t-49 117.5q0 67 49.5 115.5t117.5 48.5q67 0 116 -48.5t49 -115.5q0 -69 -49 -117.5
t-116 -48.5z" />
    <glyph glyph-name="uni1ECC" unicode="&#x1ecc;" horiz-adv-x="1654" 
d="M827 -20q-212 0 -379.5 90.5t-263.5 260.5t-96 392q0 223 96 392.5t263.5 259.5t379.5 90t379 -90t263 -259.5t96 -392.5q0 -222 -96 -392t-263.5 -260.5t-378.5 -90.5zM827 255q192 0 316 126.5t124 341.5q0 214 -124 340t-316 126t-316 -126t-124 -340
q0 -215 124 -341.5t316 -126.5zM828 -512q-69 0 -118 48.5t-49 117.5q0 67 49.5 115.5t117.5 48.5q67 0 116 -48.5t49 -115.5q0 -69 -49 -117.5t-116 -48.5z" />
    <glyph glyph-name="uni1ECD" unicode="&#x1ecd;" horiz-adv-x="1257" 
d="M628 -20q-164 0 -291 63t-199.5 185t-72.5 287q0 247 156 390t407 143q252 0 408 -143t156 -390q0 -248 -156 -391.5t-408 -143.5zM625 209q126 0 203.5 84t77.5 222t-77.5 222t-203.5 84q-121 0 -197.5 -84.5t-76.5 -221.5t76.5 -221.5t197.5 -84.5zM629 -512
q-69 0 -118 48.5t-49 117.5q0 67 49.5 115.5t117.5 48.5q67 0 116 -48.5t49 -115.5q0 -69 -49 -117.5t-116 -48.5z" />
    <glyph glyph-name="uni1ECE" unicode="&#x1ece;" horiz-adv-x="1654" 
d="M767 1536v135q111 19 111 97q0 30 -17.5 49t-51.5 19q-47 0 -86 -38l-67 96q68 58 169 58q92 0 144 -48t52 -128q0 -118 -126 -157v-83h-128zM827 -20q-212 0 -379.5 90.5t-263.5 260.5t-96 392q0 223 96 392.5t263.5 259.5t379.5 90t379 -90t263 -259.5t96 -392.5
q0 -222 -96 -392t-263.5 -260.5t-378.5 -90.5zM827 255q192 0 316 126.5t124 341.5q0 214 -124 340t-316 126t-316 -126t-124 -340q0 -215 124 -341.5t316 -126.5z" />
    <glyph glyph-name="uni1ECF" unicode="&#x1ecf;" horiz-adv-x="1257" 
d="M568 1108v135q111 21 111 97q0 31 -17.5 50t-51.5 19q-47 0 -86 -39l-67 97q69 57 169 57q92 0 144 -48t52 -127q0 -118 -126 -157v-84h-128zM628 -20q-164 0 -291 63t-199.5 185t-72.5 287q0 247 156 390t407 143q252 0 408 -143t156 -390q0 -248 -156 -391.5
t-408 -143.5zM625 209q126 0 203.5 84t77.5 222t-77.5 222t-203.5 84q-121 0 -197.5 -84.5t-76.5 -221.5t76.5 -221.5t197.5 -84.5z" />
    <glyph glyph-name="uni1ED0" unicode="&#x1ed0;" horiz-adv-x="1654" 
d="M737 1970l262 368l142 -101l-227 -267h-177zM690 1580h-177l227 299h173l227 -299h-177l-137 166zM827 -20q-212 0 -379.5 90.5t-263.5 260.5t-96 392q0 223 96 392.5t263.5 259.5t379.5 90t379 -90t263 -259.5t96 -392.5q0 -222 -96 -392t-263.5 -260.5t-378.5 -90.5z
M827 255q192 0 316 126.5t124 341.5q0 214 -124 340t-316 126t-316 -126t-124 -340q0 -215 124 -341.5t316 -126.5z" />
    <glyph glyph-name="uni1ED1" unicode="&#x1ed1;" horiz-adv-x="1257" 
d="M538 1645l262 368l142 -100l-227 -268h-177zM491 1205h-177l227 299h173l227 -299h-177l-137 166zM628 -20q-164 0 -291 63t-199.5 185t-72.5 287q0 247 156 390t407 143q252 0 408 -143t156 -390q0 -248 -156 -391.5t-408 -143.5zM625 209q126 0 203.5 84t77.5 222
t-77.5 222t-203.5 84q-121 0 -197.5 -84.5t-76.5 -221.5t76.5 -221.5t197.5 -84.5z" />
    <glyph glyph-name="uni1ED2" unicode="&#x1ed2;" horiz-adv-x="1654" 
d="M737 1970l-226 267l141 101l263 -368h-178zM690 1580h-177l227 299h173l227 -299h-177l-137 166zM827 -20q-212 0 -379.5 90.5t-263.5 260.5t-96 392q0 223 96 392.5t263.5 259.5t379.5 90t379 -90t263 -259.5t96 -392.5q0 -222 -96 -392t-263.5 -260.5t-378.5 -90.5z
M827 255q192 0 316 126.5t124 341.5q0 214 -124 340t-316 126t-316 -126t-124 -340q0 -215 124 -341.5t316 -126.5z" />
    <glyph glyph-name="uni1ED3" unicode="&#x1ed3;" horiz-adv-x="1257" 
d="M538 1645l-226 268l141 100l263 -368h-178zM491 1205h-177l227 299h173l227 -299h-177l-137 166zM628 -20q-164 0 -291 63t-199.5 185t-72.5 287q0 247 156 390t407 143q252 0 408 -143t156 -390q0 -248 -156 -391.5t-408 -143.5zM625 209q126 0 203.5 84t77.5 222
t-77.5 222t-203.5 84q-121 0 -197.5 -84.5t-76.5 -221.5t76.5 -221.5t197.5 -84.5z" />
    <glyph glyph-name="uni1ED4" unicode="&#x1ed4;" horiz-adv-x="1654" 
d="M766 1926v135q111 19 111 97q0 30 -17.5 49t-51.5 19q-47 0 -86 -38l-67 96q68 58 169 58q92 0 144 -48t52 -128q0 -118 -126 -157v-83h-128zM690 1580h-177l227 299h173l227 -299h-177l-137 166zM827 -20q-212 0 -379.5 90.5t-263.5 260.5t-96 392q0 223 96 392.5
t263.5 259.5t379.5 90t379 -90t263 -259.5t96 -392.5q0 -222 -96 -392t-263.5 -260.5t-378.5 -90.5zM827 255q192 0 316 126.5t124 341.5q0 214 -124 340t-316 126t-316 -126t-124 -340q0 -215 124 -341.5t316 -126.5z" />
    <glyph glyph-name="uni1ED5" unicode="&#x1ed5;" horiz-adv-x="1257" 
d="M567 1585v135q111 21 111 97q0 31 -17.5 50t-51.5 19q-47 0 -86 -39l-67 97q69 57 169 57q92 0 144 -48t52 -127q0 -118 -126 -157v-84h-128zM491 1205h-177l227 299h173l227 -299h-177l-137 166zM628 -20q-164 0 -291 63t-199.5 185t-72.5 287q0 247 156 390t407 143
q252 0 408 -143t156 -390q0 -248 -156 -391.5t-408 -143.5zM625 209q126 0 203.5 84t77.5 222t-77.5 222t-203.5 84q-121 0 -197.5 -84.5t-76.5 -221.5t76.5 -221.5t197.5 -84.5z" />
    <glyph glyph-name="uni1ED6" unicode="&#x1ed6;" horiz-adv-x="1654" 
d="M975 1980q-63 0 -101 21.5t-69 58.5q-3 3 -12 14.5t-12 15.5t-11 12.5t-13 11.5t-13 8t-16.5 6.5t-17.5 1.5q-41 0 -62.5 -38t-21.5 -99h-151q0 118 62 192.5t168 74.5q103 0 168 -73q6 -7 22.5 -26t24.5 -26.5t23.5 -15.5t31.5 -8q78 0 78 135h153q0 -117 -60.5 -191.5
t-170.5 -74.5zM690 1580h-177l227 299h173l227 -299h-177l-137 166zM827 -20q-212 0 -379.5 90.5t-263.5 260.5t-96 392q0 223 96 392.5t263.5 259.5t379.5 90t379 -90t263 -259.5t96 -392.5q0 -222 -96 -392t-263.5 -260.5t-378.5 -90.5zM827 255q192 0 316 126.5
t124 341.5q0 214 -124 340t-316 126t-316 -126t-124 -340q0 -215 124 -341.5t316 -126.5z" />
    <glyph glyph-name="uni1ED7" unicode="&#x1ed7;" horiz-adv-x="1257" 
d="M760 1638q-111 0 -176 102q-25 39 -57 39q-34 0 -52 -35t-18 -93h-137q0 116 54.5 189t147.5 73q112 0 175 -103q24 -38 60 -38q67 0 67 128h138q0 -115 -53.5 -188.5t-148.5 -73.5zM491 1205h-177l227 299h173l227 -299h-177l-137 166zM628 -20q-164 0 -291 63
t-199.5 185t-72.5 287q0 247 156 390t407 143q252 0 408 -143t156 -390q0 -248 -156 -391.5t-408 -143.5zM625 209q126 0 203.5 84t77.5 222t-77.5 222t-203.5 84q-121 0 -197.5 -84.5t-76.5 -221.5t76.5 -221.5t197.5 -84.5z" />
    <glyph glyph-name="uni1ED8" unicode="&#x1ed8;" horiz-adv-x="1654" 
d="M690 1580h-177l227 299h173l227 -299h-177l-137 166zM827 -20q-212 0 -379.5 90.5t-263.5 260.5t-96 392q0 223 96 392.5t263.5 259.5t379.5 90t379 -90t263 -259.5t96 -392.5q0 -222 -96 -392t-263.5 -260.5t-378.5 -90.5zM827 255q192 0 316 126.5t124 341.5
q0 214 -124 340t-316 126t-316 -126t-124 -340q0 -215 124 -341.5t316 -126.5zM828 -512q-69 0 -118 48.5t-49 117.5q0 67 49.5 115.5t117.5 48.5q67 0 116 -48.5t49 -115.5q0 -69 -49 -117.5t-116 -48.5z" />
    <glyph glyph-name="uni1ED9" unicode="&#x1ed9;" horiz-adv-x="1257" 
d="M491 1205h-177l227 299h173l227 -299h-177l-137 166zM628 -20q-164 0 -291 63t-199.5 185t-72.5 287q0 247 156 390t407 143q252 0 408 -143t156 -390q0 -248 -156 -391.5t-408 -143.5zM625 209q126 0 203.5 84t77.5 222t-77.5 222t-203.5 84q-121 0 -197.5 -84.5
t-76.5 -221.5t76.5 -221.5t197.5 -84.5zM629 -512q-69 0 -118 48.5t-49 117.5q0 67 49.5 115.5t117.5 48.5q67 0 116 -48.5t49 -115.5q0 -69 -49 -117.5t-116 -48.5z" />
    <glyph glyph-name="uni1EDA" unicode="&#x1eda;" horiz-adv-x="1654" 
d="M1142 1847l-227 -267h-177l262 368zM1498 1541h141v-166q0 -125 -51.5 -178t-133.5 -53h-2q113 -180 113 -421q0 -222 -96 -392t-263.5 -260.5t-378.5 -90.5q-212 0 -379.5 90.5t-263.5 260.5t-96 392q0 223 96 392.5t263.5 259.5t379.5 90q297 0 498 -173q42 -18 77 -18
q55 0 75.5 30t20.5 110v127zM827 255q192 0 316 126.5t124 341.5q0 214 -124 340t-316 126t-316 -126t-124 -340q0 -215 124 -341.5t316 -126.5z" />
    <glyph glyph-name="uni1EDB" unicode="&#x1edb;" horiz-adv-x="1257" 
d="M943 1436l-227 -268h-177l262 368zM1143 1192h141v-166q0 -215 -161 -230q69 -122 69 -281q0 -248 -156 -391.5t-408 -143.5q-164 0 -291 63t-199.5 185t-72.5 287q0 247 156 390t407 143q229 0 378 -118q27 -5 41 -5q55 0 75.5 30t20.5 110v127zM625 209q126 0 203.5 84
t77.5 222t-77.5 222t-203.5 84q-121 0 -197.5 -84.5t-76.5 -221.5t76.5 -221.5t197.5 -84.5z" />
    <glyph glyph-name="uni1EDC" unicode="&#x1edc;" horiz-adv-x="1654" 
d="M916 1580h-178l-226 267l141 101zM1498 1541h141v-166q0 -125 -51.5 -178t-133.5 -53h-2q113 -180 113 -421q0 -222 -96 -392t-263.5 -260.5t-378.5 -90.5q-212 0 -379.5 90.5t-263.5 260.5t-96 392q0 223 96 392.5t263.5 259.5t379.5 90q297 0 498 -173q42 -18 77 -18
q55 0 75.5 30t20.5 110v127zM827 255q192 0 316 126.5t124 341.5q0 214 -124 340t-316 126t-316 -126t-124 -340q0 -215 124 -341.5t316 -126.5z" />
    <glyph glyph-name="uni1EDD" unicode="&#x1edd;" horiz-adv-x="1257" 
d="M717 1168h-178l-226 268l141 100zM1143 1192h141v-166q0 -215 -161 -230q69 -122 69 -281q0 -248 -156 -391.5t-408 -143.5q-164 0 -291 63t-199.5 185t-72.5 287q0 247 156 390t407 143q229 0 378 -118q27 -5 41 -5q55 0 75.5 30t20.5 110v127zM625 209q126 0 203.5 84
t77.5 222t-77.5 222t-203.5 84q-121 0 -197.5 -84.5t-76.5 -221.5t76.5 -221.5t197.5 -84.5z" />
    <glyph glyph-name="uni1EDE" unicode="&#x1ede;" horiz-adv-x="1654" 
d="M809 1836q-47 0 -86 -38l-67 96q68 58 169 58q92 0 144 -48t52 -128q0 -118 -126 -157v-83h-128v135q111 19 111 97q0 30 -17.5 49t-51.5 19zM1498 1541h141v-166q0 -125 -51.5 -178t-133.5 -53h-2q113 -180 113 -421q0 -222 -96 -392t-263.5 -260.5t-378.5 -90.5
q-212 0 -379.5 90.5t-263.5 260.5t-96 392q0 223 96 392.5t263.5 259.5t379.5 90q297 0 498 -173q42 -18 77 -18q55 0 75.5 30t20.5 110v127zM827 255q192 0 316 126.5t124 341.5q0 214 -124 340t-316 126t-316 -126t-124 -340q0 -215 124 -341.5t316 -126.5z" />
    <glyph glyph-name="uni1EDF" unicode="&#x1edf;" horiz-adv-x="1257" 
d="M610 1409q-47 0 -86 -39l-67 97q69 57 169 57q92 0 144 -48t52 -127q0 -118 -126 -157v-84h-128v135q111 21 111 97q0 31 -17.5 50t-51.5 19zM1143 1192h141v-166q0 -215 -161 -230q69 -122 69 -281q0 -248 -156 -391.5t-408 -143.5q-164 0 -291 63t-199.5 185t-72.5 287
q0 247 156 390t407 143q229 0 378 -118q27 -5 41 -5q55 0 75.5 30t20.5 110v127zM625 209q126 0 203.5 84t77.5 222t-77.5 222t-203.5 84q-121 0 -197.5 -84.5t-76.5 -221.5t76.5 -221.5t197.5 -84.5z" />
    <glyph glyph-name="uni1EE0" unicode="&#x1ee0;" horiz-adv-x="1654" 
d="M711 1740q-41 0 -62.5 -38t-21.5 -99h-151q0 118 62 192.5t168 74.5q103 0 168 -73q6 -7 22.5 -26t24.5 -26.5t23.5 -15.5t31.5 -8q78 0 78 135h153q0 -117 -60.5 -191.5t-170.5 -74.5q-63 0 -101 21.5t-69 58.5q-3 3 -12 14.5t-12 15.5t-11 12.5t-13 11.5t-13 8
t-16.5 6.5t-17.5 1.5zM1498 1541h141v-166q0 -125 -51.5 -178t-133.5 -53h-2q113 -180 113 -421q0 -222 -96 -392t-263.5 -260.5t-378.5 -90.5q-212 0 -379.5 90.5t-263.5 260.5t-96 392q0 223 96 392.5t263.5 259.5t379.5 90q297 0 498 -173q42 -18 77 -18q55 0 75.5 30
t20.5 110v127zM827 255q192 0 316 126.5t124 341.5q0 214 -124 340t-316 126t-316 -126t-124 -340q0 -215 124 -341.5t316 -126.5z" />
    <glyph glyph-name="uni1EE1" unicode="&#x1ee1;" horiz-adv-x="1257" 
d="M528 1302q-34 0 -52 -35t-18 -93h-137q0 116 54.5 189t147.5 73q112 0 175 -103q24 -38 60 -38q67 0 67 128h138q0 -115 -53.5 -188.5t-148.5 -73.5q-111 0 -176 102q-25 39 -57 39zM1143 1192h141v-166q0 -215 -161 -230q69 -122 69 -281q0 -248 -156 -391.5
t-408 -143.5q-164 0 -291 63t-199.5 185t-72.5 287q0 247 156 390t407 143q229 0 378 -118q27 -5 41 -5q55 0 75.5 30t20.5 110v127zM625 209q126 0 203.5 84t77.5 222t-77.5 222t-203.5 84q-121 0 -197.5 -84.5t-76.5 -221.5t76.5 -221.5t197.5 -84.5z" />
    <glyph glyph-name="uni1EE2" unicode="&#x1ee2;" horiz-adv-x="1654" 
d="M1498 1541h141v-166q0 -125 -51.5 -178t-133.5 -53h-2q113 -180 113 -421q0 -222 -96 -392t-263.5 -260.5t-378.5 -90.5q-212 0 -379.5 90.5t-263.5 260.5t-96 392q0 223 96 392.5t263.5 259.5t379.5 90q297 0 498 -173q42 -18 77 -18q55 0 75.5 30t20.5 110v127z
M827 255q192 0 316 126.5t124 341.5q0 214 -124 340t-316 126t-316 -126t-124 -340q0 -215 124 -341.5t316 -126.5zM828 -182q67 0 116 -48.5t49 -115.5q0 -69 -49 -117.5t-116 -48.5q-69 0 -118 48.5t-49 117.5q0 67 49.5 115.5t117.5 48.5z" />
    <glyph glyph-name="uni1EE3" unicode="&#x1ee3;" horiz-adv-x="1257" 
d="M1143 1192h141v-166q0 -215 -161 -230q69 -122 69 -281q0 -248 -156 -391.5t-408 -143.5q-164 0 -291 63t-199.5 185t-72.5 287q0 247 156 390t407 143q229 0 378 -118q27 -5 41 -5q55 0 75.5 30t20.5 110v127zM625 209q126 0 203.5 84t77.5 222t-77.5 222t-203.5 84
q-121 0 -197.5 -84.5t-76.5 -221.5t76.5 -221.5t197.5 -84.5zM629 -182q67 0 116 -48.5t49 -115.5q0 -69 -49 -117.5t-116 -48.5q-69 0 -118 48.5t-49 117.5q0 67 49.5 115.5t117.5 48.5z" />
    <glyph glyph-name="uni1EE4" unicode="&#x1ee4;" horiz-adv-x="1446" 
d="M722 -20q-121 0 -222.5 31.5t-178.5 94.5t-120.5 165t-43.5 235v939h300v-898q0 -156 72.5 -229t192.5 -73t193.5 73.5t73.5 228.5v898h300v-939q0 -133 -43.5 -235t-121 -165t-179 -94.5t-223.5 -31.5zM723 -512q-69 0 -118 48.5t-49 117.5q0 67 49.5 115.5t117.5 48.5
q67 0 116 -48.5t49 -115.5q0 -69 -49 -117.5t-116 -48.5z" />
    <glyph glyph-name="uni1EE5" unicode="&#x1ee5;" horiz-adv-x="1267" 
d="M830 1028h288v-1028h-273l-7 124q-114 -144 -327 -144q-185 0 -284 92.5t-99 263.5v692h289v-630q0 -96 51.5 -141t133.5 -45q100 0 163.5 58.5t64.5 190.5v567zM636 -182q67 0 116 -48.5t49 -115.5q0 -69 -49 -117.5t-116 -48.5q-69 0 -118 48.5t-49 117.5
q0 67 49.5 115.5t117.5 48.5z" />
    <glyph glyph-name="uni1EE6" unicode="&#x1ee6;" horiz-adv-x="1446" 
d="M662 1536v135q111 19 111 97q0 30 -17.5 49t-51.5 19q-47 0 -86 -38l-67 96q68 58 169 58q92 0 144 -48t52 -128q0 -118 -126 -157v-83h-128zM722 -20q-121 0 -222.5 31.5t-178.5 94.5t-120.5 165t-43.5 235v939h300v-898q0 -156 72.5 -229t192.5 -73t193.5 73.5
t73.5 228.5v898h300v-939q0 -133 -43.5 -235t-121 -165t-179 -94.5t-223.5 -31.5z" />
    <glyph glyph-name="uni1EE7" unicode="&#x1ee7;" horiz-adv-x="1267" 
d="M617 1410q-47 0 -86 -39l-67 97q69 57 169 57q92 0 144 -48t52 -127q0 -118 -126 -157v-84h-128v135q111 21 111 97q0 31 -17.5 50t-51.5 19zM830 1028h288v-1028h-273l-7 124q-114 -144 -327 -144q-185 0 -284 92.5t-99 263.5v692h289v-630q0 -96 51.5 -141t133.5 -45
q100 0 163.5 58.5t64.5 190.5v567z" />
    <glyph glyph-name="uni1EE8" unicode="&#x1ee8;" horiz-adv-x="1446" 
d="M1037 1847l-227 -267h-177l262 368zM1442 1615h141v-166q0 -125 -51.5 -178t-133.5 -53q-49 0 -109 20v-732q0 -133 -43.5 -235t-121 -165t-179 -94.5t-223.5 -31.5q-121 0 -222.5 31.5t-178.5 94.5t-120.5 165t-43.5 235v939h300v-898q0 -156 72.5 -229t192.5 -73
t193.5 73.5t73.5 228.5v898h300v-87q31 -10 57 -10q55 0 75.5 30t20.5 110v127z" />
    <glyph glyph-name="uni1EE9" unicode="&#x1ee9;" horiz-adv-x="1267" 
d="M950 1437l-227 -268h-177l262 368zM1266 1198h141v-166q0 -125 -51.5 -178t-133.5 -53q-48 0 -104 18v-819h-273l-7 124q-114 -144 -327 -144q-185 0 -284 92.5t-99 263.5v692h289v-630q0 -96 51.5 -141t133.5 -45q100 0 163.5 58.5t64.5 190.5v567h288v-88q26 -9 52 -9
q55 0 75.5 30t20.5 110v127z" />
    <glyph glyph-name="uni1EEA" unicode="&#x1eea;" horiz-adv-x="1446" 
d="M811 1580h-178l-226 267l141 101zM1442 1615h141v-166q0 -125 -51.5 -178t-133.5 -53q-49 0 -109 20v-732q0 -133 -43.5 -235t-121 -165t-179 -94.5t-223.5 -31.5q-121 0 -222.5 31.5t-178.5 94.5t-120.5 165t-43.5 235v939h300v-898q0 -156 72.5 -229t192.5 -73
t193.5 73.5t73.5 228.5v898h300v-87q31 -10 57 -10q55 0 75.5 30t20.5 110v127z" />
    <glyph glyph-name="uni1EEB" unicode="&#x1eeb;" horiz-adv-x="1267" 
d="M724 1169h-178l-226 268l141 100zM1266 1198h141v-166q0 -125 -51.5 -178t-133.5 -53q-48 0 -104 18v-819h-273l-7 124q-114 -144 -327 -144q-185 0 -284 92.5t-99 263.5v692h289v-630q0 -96 51.5 -141t133.5 -45q100 0 163.5 58.5t64.5 190.5v567h288v-88q26 -9 52 -9
q55 0 75.5 30t20.5 110v127z" />
    <glyph glyph-name="uni1EEC" unicode="&#x1eec;" horiz-adv-x="1446" 
d="M704 1836q-47 0 -86 -38l-67 96q68 58 169 58q92 0 144 -48t52 -128q0 -118 -126 -157v-83h-128v135q111 19 111 97q0 30 -17.5 49t-51.5 19zM1442 1615h141v-166q0 -125 -51.5 -178t-133.5 -53q-49 0 -109 20v-732q0 -133 -43.5 -235t-121 -165t-179 -94.5t-223.5 -31.5
q-121 0 -222.5 31.5t-178.5 94.5t-120.5 165t-43.5 235v939h300v-898q0 -156 72.5 -229t192.5 -73t193.5 73.5t73.5 228.5v898h300v-87q31 -10 57 -10q55 0 75.5 30t20.5 110v127z" />
    <glyph glyph-name="uni1EED" unicode="&#x1eed;" horiz-adv-x="1267" 
d="M617 1410q-47 0 -86 -39l-67 97q69 57 169 57q92 0 144 -48t52 -127q0 -118 -126 -157v-84h-128v135q111 21 111 97q0 31 -17.5 50t-51.5 19zM1266 1198h141v-166q0 -125 -51.5 -178t-133.5 -53q-48 0 -104 18v-819h-273l-7 124q-114 -144 -327 -144q-185 0 -284 92.5
t-99 263.5v692h289v-630q0 -96 51.5 -141t133.5 -45q100 0 163.5 58.5t64.5 190.5v567h288v-88q26 -9 52 -9q55 0 75.5 30t20.5 110v127z" />
    <glyph glyph-name="uni1EEE" unicode="&#x1eee;" horiz-adv-x="1446" 
d="M606 1740q-41 0 -62.5 -38t-21.5 -99h-151q0 118 62 192.5t168 74.5q103 0 168 -73q6 -7 22.5 -26t24.5 -26.5t23.5 -15.5t31.5 -8q78 0 78 135h153q0 -117 -60.5 -191.5t-170.5 -74.5q-63 0 -101 21.5t-69 58.5q-3 3 -12 14.5t-12 15.5t-11 12.5t-13 11.5t-13 8
t-16.5 6.5t-17.5 1.5zM1442 1615h141v-166q0 -125 -51.5 -178t-133.5 -53q-49 0 -109 20v-732q0 -133 -43.5 -235t-121 -165t-179 -94.5t-223.5 -31.5q-121 0 -222.5 31.5t-178.5 94.5t-120.5 165t-43.5 235v939h300v-898q0 -156 72.5 -229t192.5 -73t193.5 73.5t73.5 228.5
v898h300v-87q31 -10 57 -10q55 0 75.5 30t20.5 110v127z" />
    <glyph glyph-name="uni1EEF" unicode="&#x1eef;" horiz-adv-x="1267" 
d="M535 1303q-34 0 -52 -35t-18 -93h-137q0 116 54.5 189t147.5 73q112 0 175 -103q24 -38 60 -38q67 0 67 128h138q0 -115 -53.5 -188.5t-148.5 -73.5q-111 0 -176 102q-25 39 -57 39zM1266 1198h141v-166q0 -125 -51.5 -178t-133.5 -53q-48 0 -104 18v-819h-273l-7 124
q-114 -144 -327 -144q-185 0 -284 92.5t-99 263.5v692h289v-630q0 -96 51.5 -141t133.5 -45q100 0 163.5 58.5t64.5 190.5v567h288v-88q26 -9 52 -9q55 0 75.5 30t20.5 110v127z" />
    <glyph glyph-name="uni1EF0" unicode="&#x1ef0;" horiz-adv-x="1446" 
d="M1442 1615h141v-166q0 -125 -51.5 -178t-133.5 -53q-49 0 -109 20v-732q0 -133 -43.5 -235t-121 -165t-179 -94.5t-223.5 -31.5q-121 0 -222.5 31.5t-178.5 94.5t-120.5 165t-43.5 235v939h300v-898q0 -156 72.5 -229t192.5 -73t193.5 73.5t73.5 228.5v898h300v-87
q31 -10 57 -10q55 0 75.5 30t20.5 110v127zM723 -182q67 0 116 -48.5t49 -115.5q0 -69 -49 -117.5t-116 -48.5q-69 0 -118 48.5t-49 117.5q0 67 49.5 115.5t117.5 48.5z" />
    <glyph glyph-name="uni1EF1" unicode="&#x1ef1;" horiz-adv-x="1267" 
d="M1266 1198h141v-166q0 -125 -51.5 -178t-133.5 -53q-48 0 -104 18v-819h-273l-7 124q-114 -144 -327 -144q-185 0 -284 92.5t-99 263.5v692h289v-630q0 -96 51.5 -141t133.5 -45q100 0 163.5 58.5t64.5 190.5v567h288v-88q26 -9 52 -9q55 0 75.5 30t20.5 110v127z
M636 -182q67 0 116 -48.5t49 -115.5q0 -69 -49 -117.5t-116 -48.5q-69 0 -118 48.5t-49 117.5q0 67 49.5 115.5t117.5 48.5z" />
    <glyph glyph-name="Ygrave" unicode="&#x1ef2;" horiz-adv-x="1287" 
d="M733 1580h-178l-226 267l141 101zM1271 1445l-475 -753v-692h-301v685l-478 760h332l295 -492l296 492h331z" />
    <glyph glyph-name="ygrave" unicode="&#x1ef3;" horiz-adv-x="1120" 
d="M650 1169h-178l-226 268l141 100zM822 1028h295l-634 -1512h-292l235 526l-423 986h314l245 -676z" />
    <glyph glyph-name="uni1EF4" unicode="&#x1ef4;" horiz-adv-x="1287" 
d="M495 0v685l-478 760h332l295 -492l296 492h331l-475 -753v-692h-301zM646 -182q67 0 116 -48.5t49 -115.5q0 -69 -49 -117.5t-116 -48.5q-69 0 -118 48.5t-49 117.5q0 67 49.5 115.5t117.5 48.5z" />
    <glyph glyph-name="uni1EF5" unicode="&#x1ef5;" horiz-adv-x="1120" 
d="M822 1028h295l-634 -1512h-292l235 526l-423 986h314l245 -676zM956 -182q67 0 116 -48.5t49 -115.5q0 -69 -49 -117.5t-116 -48.5q-69 0 -118 48.5t-49 117.5q0 67 49.5 115.5t117.5 48.5z" />
    <glyph glyph-name="uni1EF6" unicode="&#x1ef6;" horiz-adv-x="1287" 
d="M626 1836q-47 0 -86 -38l-67 96q68 58 169 58q92 0 144 -48t52 -128q0 -118 -126 -157v-83h-128v135q111 19 111 97q0 30 -17.5 49t-51.5 19zM1271 1445l-475 -753v-692h-301v685l-478 760h332l295 -492l296 492h331z" />
    <glyph glyph-name="uni1EF7" unicode="&#x1ef7;" horiz-adv-x="1120" 
d="M543 1410q-47 0 -86 -39l-67 97q69 57 169 57q92 0 144 -48t52 -127q0 -118 -126 -157v-84h-128v135q111 21 111 97q0 31 -17.5 50t-51.5 19zM822 1028h295l-634 -1512h-292l235 526l-423 986h314l245 -676z" />
    <glyph glyph-name="uni1EF8" unicode="&#x1ef8;" horiz-adv-x="1287" 
d="M528 1740q-41 0 -62.5 -38t-21.5 -99h-151q0 118 62 192.5t168 74.5q103 0 168 -73q6 -7 22.5 -26t24.5 -26.5t23.5 -15.5t31.5 -8q78 0 78 135h153q0 -117 -60.5 -191.5t-170.5 -74.5q-63 0 -101 21.5t-69 58.5q-3 3 -12 14.5t-12 15.5t-11 12.5t-13 11.5t-13 8
t-16.5 6.5t-17.5 1.5zM1271 1445l-475 -753v-692h-301v685l-478 760h332l295 -492l296 492h331z" />
    <glyph glyph-name="uni1EF9" unicode="&#x1ef9;" horiz-adv-x="1120" 
d="M461 1303q-34 0 -52 -35t-18 -93h-137q0 116 54.5 189t147.5 73q112 0 175 -103q24 -38 60 -38q67 0 67 128h138q0 -115 -53.5 -188.5t-148.5 -73.5q-111 0 -176 102q-25 39 -57 39zM822 1028h295l-634 -1512h-292l235 526l-423 986h314l245 -676z" />
    <glyph glyph-name="endash" unicode="&#x2013;" horiz-adv-x="1316" 
d="M146 412v241h1024v-241h-1024z" />
    <glyph glyph-name="emdash" unicode="&#x2014;" horiz-adv-x="2340" 
d="M146 412v241h2048v-241h-2048z" />
    <glyph glyph-name="quoteleft" unicode="&#x2018;" horiz-adv-x="613" 
d="M291 1445h206l-125 -654h-296z" />
    <glyph glyph-name="quoteright" unicode="&#x2019;" horiz-adv-x="612" 
d="M321 792h-206l125 654h296z" />
    <glyph glyph-name="quotesinglbase" unicode="&#x201a;" horiz-adv-x="612" 
d="M321 -368h-206l125 654h296z" />
    <glyph glyph-name="quotedblleft" unicode="&#x201c;" horiz-adv-x="1075" 
d="M291 1445h206l-125 -654h-296zM753 1445h206l-125 -654h-296z" />
    <glyph glyph-name="quotedblright" unicode="&#x201d;" horiz-adv-x="1074" 
d="M321 792h-206l125 654h296zM783 792h-206l125 654h296z" />
    <glyph glyph-name="quotedblbase" unicode="&#x201e;" horiz-adv-x="1071" 
d="M321 -368h-206l125 654h296zM780 -368h-206l125 654h296z" />
    <glyph glyph-name="dagger" unicode="&#x2020;" horiz-adv-x="995" 
d="M927 1084v-183h-342v-1176h-184v1176h-333v183h333v361h184v-361h342z" />
    <glyph glyph-name="daggerdbl" unicode="&#x2021;" horiz-adv-x="1077" 
d="M968 901h-342v-616h342v-183h-342v-377h-185v377h-332v183h332v616h-332v183h332v361h185v-361h342v-183z" />
    <glyph glyph-name="bullet" unicode="&#x2022;" horiz-adv-x="920" 
d="M461 352q-132 0 -227.5 93t-95.5 228q0 130 96.5 226t226.5 96q129 0 225 -96.5t96 -225.5q0 -135 -95.5 -228t-225.5 -93z" />
    <glyph glyph-name="ellipsis" unicode="&#x2026;" horiz-adv-x="2015" 
d="M329 -20q-67 0 -115.5 48.5t-48.5 115.5q0 68 48.5 117t115.5 49q68 0 117 -49t49 -117q0 -67 -49 -115.5t-117 -48.5zM1009 -20q-67 0 -115.5 48.5t-48.5 115.5q0 68 48.5 117t115.5 49q68 0 117 -49t49 -117q0 -67 -49 -115.5t-117 -48.5zM1684 -20q-67 0 -115.5 48.5
t-48.5 115.5q0 68 48.5 117t115.5 49q68 0 117 -49t49 -117q0 -67 -49 -115.5t-117 -48.5z" />
    <glyph glyph-name="perthousand" unicode="&#x2030;" horiz-adv-x="2478" 
d="M423 791q-140 0 -238 98.5t-98 239.5q0 139 98.5 238t237.5 99q140 0 238.5 -99t98.5 -238q0 -140 -98 -239t-239 -99zM350 -1l756 1447h241l-757 -1447h-240zM423 983q63 0 104.5 42t41.5 104q0 60 -43 102.5t-103 42.5t-103 -42t-43 -103q0 -62 42.5 -104t103.5 -42z
M1284 -17q-142 0 -240 98.5t-98 238.5t99 238.5t239 98.5q139 0 237 -98.5t98 -238.5q0 -139 -98 -238t-237 -99zM2058 -17q-142 0 -240.5 98.5t-98.5 238.5t99.5 238.5t239.5 98.5q139 0 236.5 -98.5t97.5 -238.5q0 -139 -98 -238t-236 -99zM1284 176q60 0 103 42t43 102
t-43.5 103t-102.5 43q-62 0 -104.5 -42t-42.5 -104q0 -60 42.5 -102t104.5 -42zM2058 176q60 0 103 42t43 102t-43.5 103t-102.5 43q-62 0 -105 -42t-43 -104q0 -60 43 -102t105 -42z" />
    <glyph glyph-name="guilsinglleft" unicode="&#x2039;" horiz-adv-x="639" 
d="M354 275l-312 377l312 376h231l-311 -376l311 -377h-231z" />
    <glyph glyph-name="guilsinglright" unicode="&#x203a;" horiz-adv-x="639" 
d="M54 275l311 377l-311 376h231l312 -376l-312 -377h-231z" />
    <glyph glyph-name="fraction" unicode="&#x2044;" horiz-adv-x="449" 
d="M-275 0l815 1445h184l-815 -1445h-184z" />
    <glyph glyph-name="Euro" unicode="&#x20ac;" horiz-adv-x="1553" 
d="M893 252q105 0 182.5 54t122.5 150l256 -158q-90 -147 -235.5 -232.5t-324.5 -85.5q-236 0 -404.5 133.5t-222.5 384.5h-146v156h125q-2 46 -2 71q0 23 2 67h-125v157h145q54 251 222.5 384t405.5 133q179 0 324.5 -84.5t235.5 -230.5l-256 -158q-45 98 -123 150t-182 52
q-253 0 -325 -246h403v-157h-429q-2 -42 -2 -67t2 -71h429v-156h-402q73 -246 324 -246z" />
    <glyph glyph-name="uni2113" unicode="&#x2113;" horiz-adv-x="1166" 
d="M638 -13q-170 0 -264.5 83t-122.5 223q0 12 -1 18q-14 -9 -49 -35t-57 -39l-74 143q21 16 82 60.5t92 68.5v464q0 258 107 386t282 128q105 0 177.5 -49t104.5 -126t32 -175q0 -168 -108 -329t-322 -346l3 -63q3 -90 54.5 -140.5t130.5 -50.5t152 53t125 131l118 -121
q-84 -149 -204 -216.5t-258 -67.5zM518 705q111 115 175.5 228t64.5 208q0 158 -111 158q-55 0 -92 -67.5t-37 -224.5v-302z" />
    <glyph glyph-name="uni2116" unicode="&#x2116;" horiz-adv-x="2963" 
d="M1252 467v1069h300v-1536h-308l-722 1075v-1075h-298v1536h306zM2296 365q-240 0 -392.5 152t-152.5 399q0 245 152 397t393 152q240 0 392 -152t152 -397q0 -247 -152 -399t-392 -152zM2293 1222q-114 0 -183 -81.5t-69 -224.5q0 -144 68.5 -226t183.5 -82
q117 0 187.5 82t70.5 226q0 143 -70.5 224.5t-187.5 81.5zM1834 0v185h924v-185h-924z" />
    <glyph glyph-name="trademark" unicode="&#x2122;" horiz-adv-x="1602" 
d="M108 1413v123h463v-123h-163v-594h-137v594h-163zM1234 1536h144v-717h-135v490l-218 -360l-218 359v-489h-138v717h149l207 -348z" />
    <glyph glyph-name="estimated" unicode="&#x212e;" horiz-adv-x="1942" 
d="M986 -18q-178 0 -340 62t-279.5 167.5t-186.5 250.5t-69 304q0 215 117 397t318.5 287.5t439.5 105.5q179 0 341 -62.5t279.5 -168t186.5 -252t69 -307.5v-21h-1417q-12 0 -12 -8v-430q0 -24 18 -49q106 -109 245 -171t292 -62q167 0 313.5 69.5t251.5 192.5h125
q-119 -141 -301.5 -223t-390.5 -82zM445 788h1087q9 0 9 15v430q0 34 -21 51q-107 105 -243.5 165t-288.5 60q-151 0 -289 -61.5t-246 -169.5q-20 -23 -20 -53v-422q0 -15 12 -15z" />
    <glyph glyph-name="partialdiff" unicode="&#x2202;" horiz-adv-x="1209" 
d="M339 1455q151 35 290 -11.5t239 -153t157.5 -269t53.5 -349.5q-7 -299 -161.5 -484t-394.5 -185q-124 0 -219 47.5t-145 131t-57 198t45 249.5q86 229 263.5 329t372.5 39q-53 154 -166.5 223.5t-277.5 31.5v203zM822 672q3 57 0 111q-138 79 -257.5 20t-179.5 -238
q-41 -123 -25.5 -207t63 -127t114.5 -43q105 0 190 126.5t95 357.5z" />
    <glyph glyph-name="emptyset" unicode="&#x2205;" horiz-adv-x="1499" 
d="M750 -16q-221 0 -392 142l-89 -89l-78 78l90 89q-143 170 -143 392q0 166 82 307t223 223t307 82q221 0 392 -142l89 89l78 -78l-89 -89q143 -172 143 -392q0 -166 -82 -307t-223.5 -223t-307.5 -82zM443 367l536 536q-98 75 -229 75q-159 0 -270.5 -111.5t-111.5 -270.5
q0 -131 75 -229zM750 214q160 0 271 111.5t111 270.5q0 131 -75 229l-536 -536q100 -75 229 -75z" />
    <glyph glyph-name="product" unicode="&#x220f;" horiz-adv-x="1694" 
d="M247 0v1190h-112v255h1425v-255h-113v-1190h-253v1190h-690v-1190h-257z" />
    <glyph glyph-name="summation" unicode="&#x2211;" horiz-adv-x="1413" 
d="M104 1v181l594 585l-594 585v184h1197v-222h-814l538 -547l-538 -547h814v-219h-1197z" />
    <glyph glyph-name="minus" unicode="&#x2212;" horiz-adv-x="1325" 
d="M221 591v219h883v-219h-883z" />
    <glyph glyph-name="radical" unicode="&#x221a;" horiz-adv-x="1464" 
d="M449 0l-215 662h-153v240h323l179 -542l562 1176h263l-738 -1536h-221z" />
    <glyph glyph-name="infinity" unicode="&#x221e;" horiz-adv-x="1697" 
d="M472 263q-136 0 -225 93t-94 240q5 147 94 240t225 93q182 0 375 -196q191 196 375 196q143 0 228 -89t89 -244q-4 -155 -89 -244t-228 -89q-183 0 -375 195q-193 -195 -375 -195zM472 450q52 0 117 37.5t132 108.5q-67 71 -132 108.5t-117 37.5q-55 0 -93.5 -41.5
t-39.5 -104.5q1 -63 39.5 -104.5t93.5 -41.5zM1222 450q56 0 93 39.5t38 106.5q-1 67 -38 106.5t-93 39.5q-106 0 -252 -146q146 -146 252 -146z" />
    <glyph glyph-name="integral" unicode="&#x222b;" horiz-adv-x="943" 
d="M67 -457v271q147 0 199.5 50t52.5 183v1085q0 145 96.5 239.5t241.5 94.5q62 0 125.5 -20t106.5 -62l-105 -216q-49 47 -98 47q-93 0 -93 -140v-1051q0 -223 -145.5 -352t-380.5 -129z" />
    <glyph glyph-name="approxequal" unicode="&#x2248;" horiz-adv-x="1380" 
d="M901 687q-23 0 -46 3.5t-41.5 8t-38.5 13.5t-33.5 16t-31 19.5t-27 19.5t-24.5 21.5t-20.5 20t-18.5 19.5t-15 16q-50 53 -100 53q-62 0 -96.5 -53t-38.5 -142h-204q4 183 93.5 292t248.5 109q81 0 143 -35t124 -114q18 -22 28 -32t33 -23t49 -13q55 0 90 50.5t40 140.5
h201q-5 -173 -87.5 -281.5t-227.5 -108.5zM901 193q-53 0 -100 14.5t-83.5 41t-57.5 46t-46 46.5q-6 7 -9 10q-26 29 -47.5 41t-52.5 11q-127 -6 -135 -194h-204q4 185 95 293.5t247 108.5q77 0 138.5 -34.5t128.5 -113.5q19 -23 27.5 -32.5t32.5 -23.5t50 -14q56 0 90.5 50
t39.5 143h201q-5 -173 -87.5 -283t-227.5 -110z" />
    <glyph glyph-name="notequal" unicode="&#x2260;" horiz-adv-x="1258" 
d="M150 0l192 375h-176v219h288l113 220h-401v219h512l167 323h214l-166 -323h214v-219h-326l-113 -220h439v-219h-551l-192 -375h-214z" />
    <glyph glyph-name="lessequal" unicode="&#x2264;" horiz-adv-x="1401" 
d="M1254 1500v-242l-887 -383l887 -386v-244l-1131 498v263zM123 0v185h1131v-185h-1131z" />
    <glyph glyph-name="greaterequal" unicode="&#x2265;" horiz-adv-x="1401" 
d="M148 1500l1130 -494v-263l-1130 -498v244l887 386l-887 383v242zM148 0v185h1130v-185h-1130z" />
    <glyph glyph-name="lozenge" unicode="&#x25ca;" horiz-adv-x="1354" 
d="M677 106l-618 617l618 618l617 -616zM678 424l298 301l-298 298l-301 -300z" />
    <glyph glyph-name="uniF8FF" unicode="&#xf8ff;" horiz-adv-x="1784" 
d="M892 0q-158 0 -302 62t-248 166t-166 248t-62 302t62 302.5t166 248.5t248 165.5t302 61.5t302.5 -61.5t248.5 -165.5t165.5 -248.5t61.5 -302.5t-61.5 -302t-165.5 -248t-248.5 -166t-302.5 -62zM892 74q143 0 273.5 56t225 150.5t150.5 224.5t56 273q0 191 -94.5 353.5
t-257 257t-353.5 94.5q-143 0 -273 -56t-224.5 -150.5t-150.5 -225t-56 -273.5t56 -273t150.5 -224.5t224.5 -150.5t273 -56zM1300 444q-14 0 -24 13l-297 295q-11 12 -11.5 27.5t10.5 25.5l297 297q11 10 26 10t25 -10q11 -11 11 -26.5t-11 -26.5l-270 -271l270 -270
q24 -22 0 -51q-10 -13 -26 -13zM484 444q-15 0 -25.5 11t-10.5 26v594q0 16 10.5 26.5t25.5 10.5q16 0 26.5 -10.5t10.5 -26.5v-594q0 -15 -10.5 -26t-26.5 -11zM892 444q-15 0 -26 11t-11 26v594q0 16 11 26.5t26 10.5q16 0 26.5 -10.5t10.5 -26.5v-594q0 -15 -10.5 -26
t-26.5 -11zM595 741q-15 0 -26 11t-11 26q0 16 11 26.5t26 10.5h186q16 0 26.5 -10.5t10.5 -26.5q0 -15 -10.5 -26t-26.5 -11h-186z" />
    <glyph glyph-name="G.ss02" horiz-adv-x="1606" 
d="M832 -20q-331 0 -537.5 202t-206.5 537q0 168 56 308.5t154 236t234.5 148.5t294.5 53q209 0 375.5 -88.5t260.5 -251.5l-263 -140q-56 109 -152.5 164t-220.5 55q-193 0 -315.5 -127t-122.5 -350t124 -354.5t338 -131.5q157 0 263.5 80t120.5 223h-396v241h680
q9 -92 5 -168q-4 -130 -43.5 -237t-104.5 -180.5t-152 -123.5t-185.5 -73t-206.5 -23z" />
    <glyph glyph-name="Gbreve.ss02" horiz-adv-x="1606" 
d="M820 1580q-364 0 -364 295h166q0 -81 52.5 -121t145.5 -40q95 0 147.5 39.5t52.5 121.5h166q0 -295 -366 -295zM832 -20q-331 0 -537.5 202t-206.5 537q0 168 56 308.5t154 236t234.5 148.5t294.5 53q209 0 375.5 -88.5t260.5 -251.5l-263 -140q-56 109 -152.5 164
t-220.5 55q-193 0 -315.5 -127t-122.5 -350t124 -354.5t338 -131.5q157 0 263.5 80t120.5 223h-396v241h680q9 -92 5 -168q-4 -130 -43.5 -237t-104.5 -180.5t-152 -123.5t-185.5 -73t-206.5 -23z" />
    <glyph glyph-name="Gcommaaccent.ss02" horiz-adv-x="1606" 
d="M832 -20q-331 0 -537.5 202t-206.5 537q0 168 56 308.5t154 236t234.5 148.5t294.5 53q209 0 375.5 -88.5t260.5 -251.5l-263 -140q-56 109 -152.5 164t-220.5 55q-193 0 -315.5 -127t-122.5 -350t124 -354.5t338 -131.5q157 0 263.5 80t120.5 223h-396v241h680
q9 -92 5 -168q-4 -130 -43.5 -237t-104.5 -180.5t-152 -123.5t-185.5 -73t-206.5 -23zM668 -574l-141 66l168 373h251z" />
    <glyph glyph-name="Gdotaccent.ss02" horiz-adv-x="1606" 
d="M822 1536q-69 0 -118 48.5t-49 117.5q0 68 49 116t118 48q67 0 116 -48t49 -116q0 -69 -49 -117.5t-116 -48.5zM832 -20q-331 0 -537.5 202t-206.5 537q0 168 56 308.5t154 236t234.5 148.5t294.5 53q209 0 375.5 -88.5t260.5 -251.5l-263 -140q-56 109 -152.5 164
t-220.5 55q-193 0 -315.5 -127t-122.5 -350t124 -354.5t338 -131.5q157 0 263.5 80t120.5 223h-396v241h680q9 -92 5 -168q-4 -130 -43.5 -237t-104.5 -180.5t-152 -123.5t-185.5 -73t-206.5 -23z" />
    <glyph glyph-name="G.ss03" horiz-adv-x="1606" 
d="M832 -20q-331 0 -537.5 202t-206.5 537q0 168 56 308.5t154 236t234.5 148.5t294.5 53q209 0 375.5 -88.5t260.5 -251.5l-263 -140q-56 109 -152.5 164t-220.5 55q-193 0 -315.5 -127t-122.5 -350t124 -354.5t338 -131.5q157 0 263.5 80t120.5 223h-396v241h680
q9 -92 5 -168q-4 -130 -43.5 -237t-104.5 -180.5t-152 -123.5t-185.5 -73t-206.5 -23z" />
    <glyph glyph-name="Gbreve.ss03" horiz-adv-x="1606" 
d="M820 1580q-364 0 -364 295h166q0 -81 52.5 -121t145.5 -40q95 0 147.5 39.5t52.5 121.5h166q0 -295 -366 -295zM832 -20q-331 0 -537.5 202t-206.5 537q0 168 56 308.5t154 236t234.5 148.5t294.5 53q209 0 375.5 -88.5t260.5 -251.5l-263 -140q-56 109 -152.5 164
t-220.5 55q-193 0 -315.5 -127t-122.5 -350t124 -354.5t338 -131.5q157 0 263.5 80t120.5 223h-396v241h680q9 -92 5 -168q-4 -130 -43.5 -237t-104.5 -180.5t-152 -123.5t-185.5 -73t-206.5 -23z" />
    <glyph glyph-name="Gcommaaccent.ss03" horiz-adv-x="1606" 
d="M832 -20q-331 0 -537.5 202t-206.5 537q0 168 56 308.5t154 236t234.5 148.5t294.5 53q209 0 375.5 -88.5t260.5 -251.5l-263 -140q-56 109 -152.5 164t-220.5 55q-193 0 -315.5 -127t-122.5 -350t124 -354.5t338 -131.5q157 0 263.5 80t120.5 223h-396v241h680
q9 -92 5 -168q-4 -130 -43.5 -237t-104.5 -180.5t-152 -123.5t-185.5 -73t-206.5 -23zM668 -574l-141 66l168 373h251z" />
    <glyph glyph-name="Gdotaccent.ss03" horiz-adv-x="1606" 
d="M822 1536q-69 0 -118 48.5t-49 117.5q0 68 49 116t118 48q67 0 116 -48t49 -116q0 -69 -49 -117.5t-116 -48.5zM832 -20q-331 0 -537.5 202t-206.5 537q0 168 56 308.5t154 236t234.5 148.5t294.5 53q209 0 375.5 -88.5t260.5 -251.5l-263 -140q-56 109 -152.5 164
t-220.5 55q-193 0 -315.5 -127t-122.5 -350t124 -354.5t338 -131.5q157 0 263.5 80t120.5 223h-396v241h680q9 -92 5 -168q-4 -130 -43.5 -237t-104.5 -180.5t-152 -123.5t-185.5 -73t-206.5 -23z" />
    <glyph glyph-name="i.loclTRK" horiz-adv-x="588" 
d="M296 1182q-69 0 -118 48.5t-49 117.5q0 68 49.5 116.5t117.5 48.5q67 0 116 -48.5t49 -116.5q0 -69 -49 -117.5t-116 -48.5zM149 0v1028h290v-1028h-290z" />
    <glyph glyph-name="g.ss01" horiz-adv-x="1150" 
d="M1104 1028v-200h-141q41 -80 41 -175q0 -71 -23 -129.5t-62.5 -98.5t-94.5 -67.5t-118.5 -40t-135.5 -12.5q-114 0 -208 32q-18 -31 -18 -59q0 -31 20 -52t59 -32.5t85.5 -18.5t108.5 -13q29 -2 43 -4q56 -6 97 -12t89.5 -17t83 -25.5t69 -37t55.5 -50.5t34 -68t13 -89
q0 -115 -68 -195t-181.5 -116.5t-263.5 -36.5q-228 0 -361.5 80.5t-133.5 201.5q0 113 113 223q-113 65 -113 199q0 133 103 225q-88 94 -88 232q0 116 62 203.5t161.5 130.5t218.5 43q82 0 156 -21h398zM561 508q83 0 129.5 45.5t46.5 119.5q0 76 -46.5 123t-129.5 47
t-130.5 -47.5t-47.5 -123.5q0 -74 47 -119t131 -45zM823 -183q0 33 -17 54t-64.5 34t-81 18t-117.5 14l-27 3q-61 6 -132 17q-44 -59 -44 -109q0 -66 75 -104.5t205 -38.5q203 0 203 112z" />
    <glyph glyph-name="gbreve.ss01" horiz-adv-x="1150" 
d="M574 1154q-166 0 -265 90.5t-99 260.5h180q0 -97 48 -156.5t136 -59.5q89 0 137 59t48 157h181q0 -170 -99.5 -260.5t-266.5 -90.5zM1104 1028v-200h-141q41 -80 41 -175q0 -71 -23 -129.5t-62.5 -98.5t-94.5 -67.5t-118.5 -40t-135.5 -12.5q-114 0 -208 32
q-18 -31 -18 -59q0 -31 20 -52t59 -32.5t85.5 -18.5t108.5 -13q29 -2 43 -4q56 -6 97 -12t89.5 -17t83 -25.5t69 -37t55.5 -50.5t34 -68t13 -89q0 -115 -68 -195t-181.5 -116.5t-263.5 -36.5q-228 0 -361.5 80.5t-133.5 201.5q0 113 113 223q-113 65 -113 199q0 133 103 225
q-88 94 -88 232q0 116 62 203.5t161.5 130.5t218.5 43q82 0 156 -21h398zM561 508q83 0 129.5 45.5t46.5 119.5q0 76 -46.5 123t-129.5 47t-130.5 -47.5t-47.5 -123.5q0 -74 47 -119t131 -45zM823 -183q0 33 -17 54t-64.5 34t-81 18t-117.5 14l-27 3q-61 6 -132 17
q-44 -59 -44 -109q0 -66 75 -104.5t205 -38.5q203 0 203 112z" />
    <glyph glyph-name="gcommaaccent.ss01" horiz-adv-x="1150" 
d="M791 1502l-125 -327h-296l215 327h206zM1104 1028v-200h-141q41 -80 41 -175q0 -71 -23 -129.5t-62.5 -98.5t-94.5 -67.5t-118.5 -40t-135.5 -12.5q-114 0 -208 32q-18 -31 -18 -59q0 -31 20 -52t59 -32.5t85.5 -18.5t108.5 -13q29 -2 43 -4q56 -6 97 -12t89.5 -17
t83 -25.5t69 -37t55.5 -50.5t34 -68t13 -89q0 -115 -68 -195t-181.5 -116.5t-263.5 -36.5q-228 0 -361.5 80.5t-133.5 201.5q0 113 113 223q-113 65 -113 199q0 133 103 225q-88 94 -88 232q0 116 62 203.5t161.5 130.5t218.5 43q82 0 156 -21h398zM561 508q83 0 129.5 45.5
t46.5 119.5q0 76 -46.5 123t-129.5 47t-130.5 -47.5t-47.5 -123.5q0 -74 47 -119t131 -45zM823 -183q0 33 -17 54t-64.5 34t-81 18t-117.5 14l-27 3q-61 6 -132 17q-44 -59 -44 -109q0 -66 75 -104.5t205 -38.5q203 0 203 112z" />
    <glyph glyph-name="gdotaccent.ss01" horiz-adv-x="1150" 
d="M575 1182q-69 0 -118 48.5t-49 117.5q0 68 49.5 116.5t117.5 48.5q67 0 116 -48.5t49 -116.5q0 -69 -49 -117.5t-116 -48.5zM1104 1028v-200h-141q41 -80 41 -175q0 -71 -23 -129.5t-62.5 -98.5t-94.5 -67.5t-118.5 -40t-135.5 -12.5q-114 0 -208 32q-18 -31 -18 -59
q0 -31 20 -52t59 -32.5t85.5 -18.5t108.5 -13q29 -2 43 -4q56 -6 97 -12t89.5 -17t83 -25.5t69 -37t55.5 -50.5t34 -68t13 -89q0 -115 -68 -195t-181.5 -116.5t-263.5 -36.5q-228 0 -361.5 80.5t-133.5 201.5q0 113 113 223q-113 65 -113 199q0 133 103 225q-88 94 -88 232
q0 116 62 203.5t161.5 130.5t218.5 43q82 0 156 -21h398zM561 508q83 0 129.5 45.5t46.5 119.5q0 76 -46.5 123t-129.5 47t-130.5 -47.5t-47.5 -123.5q0 -74 47 -119t131 -45zM823 -183q0 33 -17 54t-64.5 34t-81 18t-117.5 14l-27 3q-61 6 -132 17q-44 -59 -44 -109
q0 -66 75 -104.5t205 -38.5q203 0 203 112z" />
    <glyph glyph-name="a.ss02" horiz-adv-x="1315" 
d="M893 1028h273v-1028h-273l-7 134q-44 -75 -130.5 -116.5t-192.5 -41.5q-102 0 -192 37t-157.5 104.5t-106.5 169.5t-39 225q0 163 68 286.5t179.5 186.5t247.5 63q112 0 200.5 -44.5t129.5 -125.5v150zM629 215q117 0 194.5 82t77.5 215t-78 215.5t-194 82.5
q-118 0 -195.5 -81t-77.5 -217q0 -135 77.5 -216t195.5 -81z" />
    <glyph glyph-name="aacute.ss02" horiz-adv-x="1315" 
d="M973 1437l-227 -268h-177l262 368zM893 1028h273v-1028h-273l-7 134q-44 -75 -130.5 -116.5t-192.5 -41.5q-102 0 -192 37t-157.5 104.5t-106.5 169.5t-39 225q0 163 68 286.5t179.5 186.5t247.5 63q112 0 200.5 -44.5t129.5 -125.5v150zM629 215q117 0 194.5 82
t77.5 215t-78 215.5t-194 82.5q-118 0 -195.5 -81t-77.5 -217q0 -135 77.5 -216t195.5 -81z" />
    <glyph glyph-name="abreve.ss02" horiz-adv-x="1315" 
d="M658 1154q-166 0 -265 90.5t-99 260.5h180q0 -97 48 -156.5t136 -59.5q89 0 137 59t48 157h181q0 -170 -99.5 -260.5t-266.5 -90.5zM893 1028h273v-1028h-273l-7 134q-44 -75 -130.5 -116.5t-192.5 -41.5q-102 0 -192 37t-157.5 104.5t-106.5 169.5t-39 225
q0 163 68 286.5t179.5 186.5t247.5 63q112 0 200.5 -44.5t129.5 -125.5v150zM629 215q117 0 194.5 82t77.5 215t-78 215.5t-194 82.5q-118 0 -195.5 -81t-77.5 -217q0 -135 77.5 -216t195.5 -81z" />
    <glyph glyph-name="uni1EAF.ss02" horiz-adv-x="1315" 
d="M973 1914l-227 -268h-177l262 368zM658 1154q-166 0 -265 90.5t-99 260.5h180q0 -97 48 -156.5t136 -59.5q89 0 137 59t48 157h181q0 -170 -99.5 -260.5t-266.5 -90.5zM893 1028h273v-1028h-273l-7 134q-44 -75 -130.5 -116.5t-192.5 -41.5q-102 0 -192 37t-157.5 104.5
t-106.5 169.5t-39 225q0 163 68 286.5t179.5 186.5t247.5 63q112 0 200.5 -44.5t129.5 -125.5v150zM629 215q117 0 194.5 82t77.5 215t-78 215.5t-194 82.5q-118 0 -195.5 -81t-77.5 -217q0 -135 77.5 -216t195.5 -81z" />
    <glyph glyph-name="uni1EB7.ss02" horiz-adv-x="1315" 
d="M658 1154q-166 0 -265 90.5t-99 260.5h180q0 -97 48 -156.5t136 -59.5q89 0 137 59t48 157h181q0 -170 -99.5 -260.5t-266.5 -90.5zM893 1028h273v-1028h-273l-7 134q-44 -75 -130.5 -116.5t-192.5 -41.5q-102 0 -192 37t-157.5 104.5t-106.5 169.5t-39 225
q0 163 68 286.5t179.5 186.5t247.5 63q112 0 200.5 -44.5t129.5 -125.5v150zM629 215q117 0 194.5 82t77.5 215t-78 215.5t-194 82.5q-118 0 -195.5 -81t-77.5 -217q0 -135 77.5 -216t195.5 -81zM659 -182q67 0 116 -48.5t49 -115.5q0 -69 -49 -117.5t-116 -48.5
q-69 0 -118 48.5t-49 117.5q0 67 49.5 115.5t117.5 48.5z" />
    <glyph glyph-name="uni1EB1.ss02" horiz-adv-x="1315" 
d="M747 1646h-178l-226 268l141 100zM658 1154q-166 0 -265 90.5t-99 260.5h180q0 -97 48 -156.5t136 -59.5q89 0 137 59t48 157h181q0 -170 -99.5 -260.5t-266.5 -90.5zM893 1028h273v-1028h-273l-7 134q-44 -75 -130.5 -116.5t-192.5 -41.5q-102 0 -192 37t-157.5 104.5
t-106.5 169.5t-39 225q0 163 68 286.5t179.5 186.5t247.5 63q112 0 200.5 -44.5t129.5 -125.5v150zM629 215q117 0 194.5 82t77.5 215t-78 215.5t-194 82.5q-118 0 -195.5 -81t-77.5 -217q0 -135 77.5 -216t195.5 -81z" />
    <glyph glyph-name="uni1EB3.ss02" horiz-adv-x="1315" 
d="M640 1887q-47 0 -86 -39l-67 97q69 57 169 57q92 0 144 -48t52 -127q0 -118 -126 -157v-84h-128v135q111 21 111 97q0 31 -17.5 50t-51.5 19zM658 1154q-166 0 -265 90.5t-99 260.5h180q0 -97 48 -156.5t136 -59.5q89 0 137 59t48 157h181q0 -170 -99.5 -260.5
t-266.5 -90.5zM893 1028h273v-1028h-273l-7 134q-44 -75 -130.5 -116.5t-192.5 -41.5q-102 0 -192 37t-157.5 104.5t-106.5 169.5t-39 225q0 163 68 286.5t179.5 186.5t247.5 63q112 0 200.5 -44.5t129.5 -125.5v150zM629 215q117 0 194.5 82t77.5 215t-78 215.5t-194 82.5
q-118 0 -195.5 -81t-77.5 -217q0 -135 77.5 -216t195.5 -81z" />
    <glyph glyph-name="uni1EB5.ss02" horiz-adv-x="1315" 
d="M558 1780q-34 0 -52 -35t-18 -93h-137q0 116 54.5 189t147.5 73q112 0 175 -103q24 -38 60 -38q67 0 67 128h138q0 -115 -53.5 -188.5t-148.5 -73.5q-111 0 -176 102q-25 39 -57 39zM658 1154q-166 0 -265 90.5t-99 260.5h180q0 -97 48 -156.5t136 -59.5q89 0 137 59
t48 157h181q0 -170 -99.5 -260.5t-266.5 -90.5zM893 1028h273v-1028h-273l-7 134q-44 -75 -130.5 -116.5t-192.5 -41.5q-102 0 -192 37t-157.5 104.5t-106.5 169.5t-39 225q0 163 68 286.5t179.5 186.5t247.5 63q112 0 200.5 -44.5t129.5 -125.5v150zM629 215
q117 0 194.5 82t77.5 215t-78 215.5t-194 82.5q-118 0 -195.5 -81t-77.5 -217q0 -135 77.5 -216t195.5 -81z" />
    <glyph glyph-name="uni01CE.ss02" horiz-adv-x="1315" 
d="M745 1206h-174l-227 299h177l137 -167l136 167h178zM893 1028h273v-1028h-273l-7 134q-44 -75 -130.5 -116.5t-192.5 -41.5q-102 0 -192 37t-157.5 104.5t-106.5 169.5t-39 225q0 163 68 286.5t179.5 186.5t247.5 63q112 0 200.5 -44.5t129.5 -125.5v150zM629 215
q117 0 194.5 82t77.5 215t-78 215.5t-194 82.5q-118 0 -195.5 -81t-77.5 -217q0 -135 77.5 -216t195.5 -81z" />
    <glyph glyph-name="acircumflex.ss02" horiz-adv-x="1315" 
d="M657 1372l-136 -166h-177l227 299h173l227 -299h-177zM893 1028h273v-1028h-273l-7 134q-44 -75 -130.5 -116.5t-192.5 -41.5q-102 0 -192 37t-157.5 104.5t-106.5 169.5t-39 225q0 163 68 286.5t179.5 186.5t247.5 63q112 0 200.5 -44.5t129.5 -125.5v150zM629 215
q117 0 194.5 82t77.5 215t-78 215.5t-194 82.5q-118 0 -195.5 -81t-77.5 -217q0 -135 77.5 -216t195.5 -81z" />
    <glyph glyph-name="uni1EA5.ss02" horiz-adv-x="1315" 
d="M972 1914l-227 -268h-177l262 368zM657 1372l-136 -166h-177l227 299h173l227 -299h-177zM893 1028h273v-1028h-273l-7 134q-44 -75 -130.5 -116.5t-192.5 -41.5q-102 0 -192 37t-157.5 104.5t-106.5 169.5t-39 225q0 163 68 286.5t179.5 186.5t247.5 63
q112 0 200.5 -44.5t129.5 -125.5v150zM629 215q117 0 194.5 82t77.5 215t-78 215.5t-194 82.5q-118 0 -195.5 -81t-77.5 -217q0 -135 77.5 -216t195.5 -81z" />
    <glyph glyph-name="uni1EAD.ss02" horiz-adv-x="1315" 
d="M657 1372l-136 -166h-177l227 299h173l227 -299h-177zM893 1028h273v-1028h-273l-7 134q-44 -75 -130.5 -116.5t-192.5 -41.5q-102 0 -192 37t-157.5 104.5t-106.5 169.5t-39 225q0 163 68 286.5t179.5 186.5t247.5 63q112 0 200.5 -44.5t129.5 -125.5v150zM629 215
q117 0 194.5 82t77.5 215t-78 215.5t-194 82.5q-118 0 -195.5 -81t-77.5 -217q0 -135 77.5 -216t195.5 -81zM659 -182q67 0 116 -48.5t49 -115.5q0 -69 -49 -117.5t-116 -48.5q-69 0 -118 48.5t-49 117.5q0 67 49.5 115.5t117.5 48.5z" />
    <glyph glyph-name="uni1EA7.ss02" horiz-adv-x="1315" 
d="M746 1646h-178l-226 268l141 100zM571 1505h173l227 -299h-177l-137 166l-136 -166h-177zM893 1028h273v-1028h-273l-7 134q-44 -75 -130.5 -116.5t-192.5 -41.5q-102 0 -192 37t-157.5 104.5t-106.5 169.5t-39 225q0 163 68 286.5t179.5 186.5t247.5 63
q112 0 200.5 -44.5t129.5 -125.5v150zM629 215q117 0 194.5 82t77.5 215t-78 215.5t-194 82.5q-118 0 -195.5 -81t-77.5 -217q0 -135 77.5 -216t195.5 -81z" />
    <glyph glyph-name="uni1EA9.ss02" horiz-adv-x="1315" 
d="M639 1887q-47 0 -86 -39l-67 97q69 57 169 57q92 0 144 -48t52 -127q0 -118 -126 -157v-84h-128v135q111 21 111 97q0 31 -17.5 50t-51.5 19zM657 1372l-136 -166h-177l227 299h173l227 -299h-177zM893 1028h273v-1028h-273l-7 134q-44 -75 -130.5 -116.5t-192.5 -41.5
q-102 0 -192 37t-157.5 104.5t-106.5 169.5t-39 225q0 163 68 286.5t179.5 186.5t247.5 63q112 0 200.5 -44.5t129.5 -125.5v150zM629 215q117 0 194.5 82t77.5 215t-78 215.5t-194 82.5q-118 0 -195.5 -81t-77.5 -217q0 -135 77.5 -216t195.5 -81z" />
    <glyph glyph-name="uni1EAB.ss02" horiz-adv-x="1315" 
d="M557 1780q-34 0 -52 -35t-18 -93h-137q0 116 54.5 189t147.5 73q112 0 175 -103q24 -38 60 -38q67 0 67 128h138q0 -115 -53.5 -188.5t-148.5 -73.5q-111 0 -176 102q-25 39 -57 39zM657 1372l-136 -166h-177l227 299h173l227 -299h-177zM893 1028h273v-1028h-273l-7 134
q-44 -75 -130.5 -116.5t-192.5 -41.5q-102 0 -192 37t-157.5 104.5t-106.5 169.5t-39 225q0 163 68 286.5t179.5 186.5t247.5 63q112 0 200.5 -44.5t129.5 -125.5v150zM629 215q117 0 194.5 82t77.5 215t-78 215.5t-194 82.5q-118 0 -195.5 -81t-77.5 -217q0 -135 77.5 -216
t195.5 -81z" />
    <glyph glyph-name="adieresis.ss02" horiz-adv-x="1315" 
d="M443 1182q-69 0 -118 48.5t-49 117.5q0 68 49.5 116.5t117.5 48.5q67 0 116 -48.5t49 -116.5q0 -69 -49 -117.5t-116 -48.5zM874 1182q-69 0 -118 48.5t-49 117.5q0 68 49 116.5t118 48.5q67 0 116 -48.5t49 -116.5q0 -69 -49 -117.5t-116 -48.5zM893 1028h273v-1028
h-273l-7 134q-44 -75 -130.5 -116.5t-192.5 -41.5q-102 0 -192 37t-157.5 104.5t-106.5 169.5t-39 225q0 163 68 286.5t179.5 186.5t247.5 63q112 0 200.5 -44.5t129.5 -125.5v150zM629 215q117 0 194.5 82t77.5 215t-78 215.5t-194 82.5q-118 0 -195.5 -81t-77.5 -217
q0 -135 77.5 -216t195.5 -81z" />
    <glyph glyph-name="uni1EA1.ss02" horiz-adv-x="1315" 
d="M893 1028h273v-1028h-273l-7 134q-44 -75 -130.5 -116.5t-192.5 -41.5q-102 0 -192 37t-157.5 104.5t-106.5 169.5t-39 225q0 163 68 286.5t179.5 186.5t247.5 63q112 0 200.5 -44.5t129.5 -125.5v150zM629 215q117 0 194.5 82t77.5 215t-78 215.5t-194 82.5
q-118 0 -195.5 -81t-77.5 -217q0 -135 77.5 -216t195.5 -81zM659 -182q67 0 116 -48.5t49 -115.5q0 -69 -49 -117.5t-116 -48.5q-69 0 -118 48.5t-49 117.5q0 67 49.5 115.5t117.5 48.5z" />
    <glyph glyph-name="agrave.ss02" horiz-adv-x="1315" 
d="M747 1169h-178l-226 268l141 100zM893 1028h273v-1028h-273l-7 134q-44 -75 -130.5 -116.5t-192.5 -41.5q-102 0 -192 37t-157.5 104.5t-106.5 169.5t-39 225q0 163 68 286.5t179.5 186.5t247.5 63q112 0 200.5 -44.5t129.5 -125.5v150zM629 215q117 0 194.5 82t77.5 215
t-78 215.5t-194 82.5q-118 0 -195.5 -81t-77.5 -217q0 -135 77.5 -216t195.5 -81z" />
    <glyph glyph-name="uni1EA3.ss02" horiz-adv-x="1315" 
d="M640 1410q-47 0 -86 -39l-67 97q69 57 169 57q92 0 144 -48t52 -127q0 -118 -126 -157v-84h-128v135q111 21 111 97q0 31 -17.5 50t-51.5 19zM893 1028h273v-1028h-273l-7 134q-44 -75 -130.5 -116.5t-192.5 -41.5q-102 0 -192 37t-157.5 104.5t-106.5 169.5t-39 225
q0 163 68 286.5t179.5 186.5t247.5 63q112 0 200.5 -44.5t129.5 -125.5v150zM629 215q117 0 194.5 82t77.5 215t-78 215.5t-194 82.5q-118 0 -195.5 -81t-77.5 -217q0 -135 77.5 -216t195.5 -81z" />
    <glyph glyph-name="amacron.ss02" horiz-adv-x="1315" 
d="M990 1367v-170h-664v170h664zM893 1028h273v-1028h-273l-7 134q-44 -75 -130.5 -116.5t-192.5 -41.5q-102 0 -192 37t-157.5 104.5t-106.5 169.5t-39 225q0 163 68 286.5t179.5 186.5t247.5 63q112 0 200.5 -44.5t129.5 -125.5v150zM629 215q117 0 194.5 82t77.5 215
t-78 215.5t-194 82.5q-118 0 -195.5 -81t-77.5 -217q0 -135 77.5 -216t195.5 -81z" />
    <glyph glyph-name="aogonek.ss02" horiz-adv-x="1315" 
d="M1166 0q-172 -155 -172 -220q0 -36 60 -36q28 0 60 11t52 29v-182q-65 -27 -144 -27q-86 0 -139.5 28t-53.5 81q0 111 217 316h-153l-7 134q-44 -75 -130.5 -116.5t-192.5 -41.5q-102 0 -192 37t-157.5 104.5t-106.5 169.5t-39 225q0 163 68 286.5t179.5 186.5t247.5 63
q112 0 200.5 -44.5t129.5 -125.5v150h273v-1028zM629 215q117 0 194.5 82t77.5 215t-78 215.5t-194 82.5q-118 0 -195.5 -81t-77.5 -217q0 -135 77.5 -216t195.5 -81z" />
    <glyph glyph-name="aring.ss02" horiz-adv-x="1315" 
d="M658 1140q-100 0 -170.5 71t-70.5 170q0 97 71 167t170 70q97 0 167 -70t70 -167q0 -99 -70 -170t-167 -71zM658 1501q-49 0 -82.5 -36t-33.5 -84q0 -53 33 -86t83 -33t84 33.5t34 85.5q0 48 -34.5 84t-83.5 36zM893 1028h273v-1028h-273l-7 134q-44 -75 -130.5 -116.5
t-192.5 -41.5q-102 0 -192 37t-157.5 104.5t-106.5 169.5t-39 225q0 163 68 286.5t179.5 186.5t247.5 63q112 0 200.5 -44.5t129.5 -125.5v150zM629 215q117 0 194.5 82t77.5 215t-78 215.5t-194 82.5q-118 0 -195.5 -81t-77.5 -217q0 -135 77.5 -216t195.5 -81z" />
    <glyph glyph-name="atilde.ss02" horiz-adv-x="1315" 
d="M558 1303q-34 0 -52 -35t-18 -93h-137q0 116 54.5 189t147.5 73q112 0 175 -103q24 -38 60 -38q67 0 67 128h138q0 -115 -53.5 -188.5t-148.5 -73.5q-111 0 -176 102q-25 39 -57 39zM893 1028h273v-1028h-273l-7 134q-44 -75 -130.5 -116.5t-192.5 -41.5q-102 0 -192 37
t-157.5 104.5t-106.5 169.5t-39 225q0 163 68 286.5t179.5 186.5t247.5 63q112 0 200.5 -44.5t129.5 -125.5v150zM629 215q117 0 194.5 82t77.5 215t-78 215.5t-194 82.5q-118 0 -195.5 -81t-77.5 -217q0 -135 77.5 -216t195.5 -81z" />
    <glyph glyph-name="f_t" horiz-adv-x="1446" 
d="M221 0v807h-201v221h201v111q0 73 13 131t35 99.5t58.5 71.5t76 48t94.5 29t108.5 14.5t122.5 3.5v-230h-6q-28 0 -42.5 -0.5t-41 -3.5t-41.5 -9t-34.5 -18.5t-30 -30t-18 -44.5t-7.5 -62v-110h227q91 0 136 40t45 127v165h245v-332h212v-221h-212v-455q0 -133 119 -133
h88v-219h-185q-150 0 -232 83.5t-82 237.5v486h-361v-807h-287z" />
    <glyph glyph-name="t_t" horiz-adv-x="1491" 
d="M532 0q-150 0 -232 83.5t-82 237.5v486h-202v221h80q151 0 151 137v148h263v-285h281q152 0 152 137v148h262v-285h213v-221h-213v-455q0 -133 120 -133h88v-219h-186q-149 0 -231 83.5t-82 237.5v486h-404v-455q0 -133 119 -133h88v-219h-185z" />
    <glyph glyph-name="zero.subs" horiz-adv-x="783" 
d="M391 -381q-152 0 -246.5 131.5t-94.5 341.5q0 211 94.5 342t246.5 131q153 0 248 -131t95 -342q0 -210 -95 -341.5t-248 -131.5zM393 -212q74 0 121 83t47 221t-47 221.5t-121 83.5q-75 0 -122 -83.5t-47 -221.5t47 -221t122 -83z" />
    <glyph glyph-name="one.subs" horiz-adv-x="480" 
d="M203 553h158v-922h-169v762l-193 -150v162z" />
    <glyph glyph-name="two.subs" horiz-adv-x="720" 
d="M217 -235h451v-134h-631v161q115 78 198.5 144.5t131 114t75 90.5t35.5 71.5t8 59.5q0 85 -39 121t-95 33q-68 -4 -99 -48.5t-29 -110.5h-177q-3 130 87 215t228 85q129 0 208.5 -76.5t81.5 -199.5q3 -278 -434 -526z" />
    <glyph glyph-name="three.subs" horiz-adv-x="697" 
d="M516 137q136 -73 136 -223q0 -124 -89.5 -209.5t-225.5 -85.5q-131 0 -220 77t-89 193h167q3 -61 44.5 -94.5t102.5 -33.5q66 0 104.5 38.5t38.5 107.5q0 68 -39.5 105t-112.5 37h-59v131h48q61 0 94.5 33.5t33.5 94.5q0 60 -31.5 90.5t-85.5 30.5q-52 0 -85.5 -30.5
t-36.5 -96.5h-162q0 118 80 190.5t201 72.5q119 0 195 -70t76 -180q0 -115 -85 -178z" />
    <glyph glyph-name="four.subs" horiz-adv-x="731" 
d="M688 -46v-128h-97v-195h-164v195h-423v147l365 580h222v-599h97zM144 -46h283v469z" />
    <glyph glyph-name="five.subs" horiz-adv-x="765" 
d="M382 229q171 0 251 -79.5t80 -217.5q0 -142 -92.5 -226t-233.5 -84t-236 74t-101 216h172q6 -75 51.5 -112.5t109.5 -37.5q73 0 116.5 45t43.5 120q0 84 -46.5 125t-145.5 41h-281l95 461h514v-141h-394l-36 -184h133z" />
    <glyph glyph-name="six.subs" horiz-adv-x="707" 
d="M688 -52q2 -146 -98.5 -235.5t-237.5 -91.5t-238 84t-103 232q-1 106 76 206l304 410h202l-242 -300q15 3 33 3q117 1 209.5 -91t94.5 -217zM352 -219q71 2 121.5 49t49.5 120q-2 75 -54.5 120.5t-122.5 43.5q-71 -2 -120 -49t-48 -124q2 -74 53 -118t121 -42z" />
    <glyph glyph-name="seven.subs" horiz-adv-x="640" 
d="M18 553h631v-124l-430 -798h-197l424 763h-428v159z" />
    <glyph glyph-name="eight.subs" horiz-adv-x="729" 
d="M550 140q63 -37 98 -97.5t35 -135.5q0 -122 -91 -205t-229 -83q-136 0 -227 83t-91 205q0 75 35 135.5t98 97.5q-78 62 -78 185q0 103 75 171.5t190 68.5q113 0 188 -69t75 -171q0 -123 -78 -185zM365 428q-52 0 -85.5 -34t-33.5 -86q0 -49 34 -83.5t85 -34.5
q50 0 83.5 34.5t33.5 83.5q0 52 -33.5 86t-83.5 34zM363 -232q65 0 108 46t43 111t-43 108t-108 43q-64 0 -106.5 -43t-42.5 -108t42.5 -111t106.5 -46z" />
    <glyph glyph-name="nine.subs" horiz-adv-x="708" 
d="M695 248q1 -104 -75 -207l-304 -410h-202l243 301q-20 -4 -35 -4q-117 -1 -209.5 91.5t-94.5 216.5q-2 146 98.5 235.5t238.5 91.5q88 2 164 -34t125.5 -109.5t50.5 -171.5zM361 71q71 2 119.5 49t47.5 123q-1 75 -52 118.5t-121 41.5q-71 -2 -122 -49t-49 -120
q2 -75 54.5 -120t122.5 -43z" />
    <glyph glyph-name="zero.dnom" horiz-adv-x="783" 
d="M391 -12q-152 0 -246.5 131t-94.5 342q0 210 94.5 341.5t246.5 131.5q153 0 248 -131.5t95 -341.5q0 -211 -95 -342t-248 -131zM393 156q74 0 121 83.5t47 221.5t-47 221t-121 83q-75 0 -122 -83t-47 -221t47 -221.5t122 -83.5z" />
    <glyph glyph-name="one.dnom" horiz-adv-x="480" 
d="M203 922h158v-922h-169v762l-193 -151v163z" />
    <glyph glyph-name="two.dnom" horiz-adv-x="720" 
d="M217 134h451v-134h-631v161q115 78 198.5 144.5t131 114t75 90.5t35.5 71.5t8 59.5q0 85 -39 120.5t-95 32.5q-68 -4 -99 -48.5t-29 -110.5h-177q-3 131 87 216t228 85q129 0 208.5 -76.5t81.5 -200.5q3 -277 -434 -525z" />
    <glyph glyph-name="three.dnom" horiz-adv-x="697" 
d="M516 506q136 -73 136 -224q0 -123 -89.5 -208.5t-225.5 -85.5q-131 0 -220 77t-89 193h167q3 -61 44.5 -95t102.5 -34q66 0 104.5 39t38.5 108q0 68 -39.5 104.5t-112.5 36.5h-59v132h48q61 0 94.5 33t33.5 95q0 59 -31.5 90t-85.5 31q-52 0 -85.5 -31t-36.5 -97l-162 1
q0 118 80 190.5t201 72.5q119 0 195 -70t76 -180q0 -115 -85 -178z" />
    <glyph glyph-name="four.dnom" horiz-adv-x="731" 
d="M688 323v-128h-97v-195h-164v195h-423v146l365 581h222v-599h97zM145 323h282v468z" />
    <glyph glyph-name="five.dnom" horiz-adv-x="765" 
d="M382 598q171 0 251 -79.5t80 -217.5q0 -142 -92.5 -226t-233.5 -84t-236 74t-101 216h172q6 -76 51.5 -113t109.5 -37q73 0 116.5 45t43.5 120q0 84 -46.5 125t-145.5 41h-281l95 461h514v-142h-394l-36 -183h133z" />
    <glyph glyph-name="six.dnom" horiz-adv-x="707" 
d="M688 317q2 -146 -98.5 -235.5t-237.5 -91.5q-88 -2 -164 34t-126 109.5t-51 171.5q-1 105 76 207l304 410h202l-243 -301q20 4 34 4q117 1 209.5 -91.5t94.5 -216.5zM352 150q71 2 121.5 49t49.5 120q-2 75 -54.5 120t-122.5 43q-71 -2 -120 -49t-48 -123
q2 -75 53 -118.5t121 -41.5z" />
    <glyph glyph-name="seven.dnom" horiz-adv-x="640" 
d="M18 922h631v-124l-430 -798h-197l424 763h-428v159z" />
    <glyph glyph-name="eight.dnom" horiz-adv-x="729" 
d="M550 509q63 -38 98 -98.5t35 -135.5q0 -122 -91 -204.5t-229 -82.5q-136 0 -227 83t-91 204q0 75 35 135.5t98 98.5q-78 62 -78 184q0 103 75 172t190 69q113 0 188 -69.5t75 -171.5q0 -122 -78 -184zM365 796q-52 0 -85.5 -34t-33.5 -85q0 -50 34 -84t85 -34
q50 0 83.5 34t33.5 84q0 51 -33.5 85t-83.5 34zM363 137q65 0 108 45.5t43 111.5q0 65 -43 107.5t-108 42.5q-64 0 -106.5 -42.5t-42.5 -107.5q0 -66 42.5 -111.5t106.5 -45.5z" />
    <glyph glyph-name="nine.dnom" horiz-adv-x="708" 
d="M695 616q1 -105 -75 -206l-304 -410h-202l242 300q-15 -3 -34 -3q-76 -1 -145.5 40.5t-113.5 113.5t-45 154q-1 98 47.5 173.5t124.5 113.5t165 40q88 1 164 -34.5t125.5 -109.5t50.5 -172zM361 439q71 2 119.5 49t47.5 123q-1 75 -52 119t-121 42q-71 -2 -122 -49.5
t-49 -119.5q2 -76 54.5 -121t122.5 -43z" />
    <glyph glyph-name="zero.numr" horiz-adv-x="783" 
d="M391 520q-152 0 -246.5 131t-94.5 342q0 210 94.5 341.5t246.5 131.5q153 0 248 -131.5t95 -341.5q0 -211 -95 -342t-248 -131zM393 688q74 0 121 83t47 222q0 138 -47 221t-121 83q-75 0 -122 -82.5t-47 -221.5t47 -222t122 -83z" />
    <glyph glyph-name="one.numr" horiz-adv-x="481" 
d="M205 1445h157v-921h-170l1 761l-193 -150l-1 163z" />
    <glyph glyph-name="two.numr" horiz-adv-x="720" 
d="M219 664h449v-134h-631v160q143 98 236.5 175t137.5 133.5t59 94.5t15 78q0 85 -39 120.5t-95 32.5q-68 -4 -99 -48.5t-29 -110.5h-177q-3 131 87 216t228 85q129 0 208.5 -77t81.5 -200q3 -276 -432 -525z" />
    <glyph glyph-name="three.numr" horiz-adv-x="697" 
d="M514 1037q138 -71 138 -223q0 -123 -89.5 -208.5t-224.5 -85.5q-132 0 -221 77t-89 193h177q0 -62 37.5 -95.5t96.5 -33.5q63 0 101 39.5t38 108.5q0 67 -41 103.5t-119 36.5h-44v132h33q135 0 135 129q0 56 -30.5 88t-79.5 32q-111 0 -111 -128l-172 1q0 119 79.5 191
t203.5 72q118 0 193.5 -70.5t75.5 -181.5q0 -113 -87 -177z" />
    <glyph glyph-name="four.numr" horiz-adv-x="731" 
d="M688 846v-128h-97v-194h-164v194h-423v147l365 580h222v-599h97zM144 846h283v469z" />
    <glyph glyph-name="five.numr" horiz-adv-x="765" 
d="M382 1120q171 0 251 -79.5t80 -217.5q0 -142 -92.5 -226t-233.5 -84t-236 74t-101 216h172q6 -76 51.5 -113t109.5 -37q73 0 116.5 45t43.5 120q0 83 -46.5 124.5t-145.5 41.5h-281l95 461h514v-141h-394l-36 -184h133z" />
    <glyph glyph-name="six.numr" horiz-adv-x="707" 
d="M688 840q2 -146 -98 -235.5t-238 -91.5q-137 -2 -238 84t-103 232q-1 105 76 207l304 409h202l-242 -300q20 4 33 4q117 1 209.5 -91.5t94.5 -217.5zM352 673q71 2 121.5 49.5t49.5 120.5q-2 74 -54.5 119.5t-122.5 43.5q-71 -2 -120 -49t-48 -123q2 -75 53 -119t121 -42
z" />
    <glyph glyph-name="seven.numr" horiz-adv-x="640" 
d="M18 1445h631v-123l-430 -798h-197l424 763h-428v158z" />
    <glyph glyph-name="eight.numr" horiz-adv-x="729" 
d="M550 1041q63 -38 98 -98.5t35 -135.5q0 -122 -91 -204.5t-229 -82.5q-136 0 -227 82.5t-91 204.5q0 75 35 135.5t98 98.5q-78 62 -78 184q0 103 75 172t190 69q113 0 188 -69.5t75 -171.5q0 -122 -78 -184zM365 1328q-52 0 -85.5 -34t-33.5 -85q0 -50 34 -84t85 -34
q50 0 83.5 34t33.5 84q0 51 -33.5 85t-83.5 34zM363 669q65 0 108 45.5t43 111.5q0 65 -43 107.5t-108 42.5q-64 0 -106.5 -42.5t-42.5 -107.5q0 -66 42.5 -111.5t106.5 -45.5z" />
    <glyph glyph-name="nine.numr" horiz-adv-x="707" 
d="M359 1466q88 0 163.5 -36.5t124 -111t48.5 -172.5q0 -102 -75 -202l-304 -410h-202l243 301q-15 -4 -37 -4q-117 0 -209.5 93.5t-92.5 219.5q0 145 101.5 233.5t239.5 88.5zM357 973q71 0 121 46t50 122t-49.5 120.5t-119.5 44.5q-71 0 -123 -46t-52 -118
q0 -76 51.5 -122.5t121.5 -46.5z" />
    <glyph glyph-name="zero.sups" horiz-adv-x="783" 
d="M391 973q-152 0 -246.5 131.5t-94.5 341.5q0 211 94.5 342t246.5 131q153 0 248 -131t95 -342q0 -210 -95 -341.5t-248 -131.5zM393 1142q74 0 121 83t47 221t-47 221t-121 83q-75 0 -122 -82.5t-47 -221.5t47 -221.5t122 -82.5z" />
    <glyph glyph-name="one.sups" horiz-adv-x="481" 
d="M205 1905h157v-922h-170l1 762l-193 -150l-1 162z" />
    <glyph glyph-name="two.sups" horiz-adv-x="720" 
d="M217 1117h451v-134h-631v161q115 78 198.5 144.5t131 114t75 90.5t35.5 71.5t8 59.5q0 85 -39 120.5t-95 32.5q-68 -4 -99 -48t-29 -110h-177q-3 130 87 215t228 85q129 0 208.5 -76.5t81.5 -200.5q3 -277 -434 -525z" />
    <glyph glyph-name="three.sups" horiz-adv-x="697" 
d="M514 1488q138 -71 138 -223q0 -123 -89.5 -208.5t-224.5 -85.5q-132 0 -221 77t-89 193h177q0 -62 37.5 -95.5t96.5 -33.5q63 0 101 39.5t38 108.5q0 67 -41 103.5t-119 36.5h-44v132h33q135 0 135 130q0 56 -30.5 87.5t-79.5 31.5q-111 0 -111 -128l-172 1
q0 119 79.5 191t203.5 72q117 0 193 -70t76 -181q0 -114 -87 -178z" />
    <glyph glyph-name="four.sups" horiz-adv-x="731" 
d="M688 1306v-128h-97v-195h-164v195h-423v146l365 581h222v-599h97zM145 1306h282v468z" />
    <glyph glyph-name="five.sups" horiz-adv-x="765" 
d="M382 1581q171 0 251 -79.5t80 -217.5q0 -142 -92.5 -226t-233.5 -84t-236 74t-101 216h172q6 -76 51.5 -113t109.5 -37q73 0 116.5 45t43.5 120q0 83 -46.5 124.5t-145.5 41.5h-281l95 461h514v-142h-394l-36 -183h133z" />
    <glyph glyph-name="six.sups" horiz-adv-x="707" 
d="M688 1300q2 -146 -98.5 -235.5t-237.5 -91.5q-88 -2 -164 34t-126 109.5t-51 171.5q-1 105 76 207l304 410h202l-242 -301q20 4 33 4q117 1 209.5 -91.5t94.5 -216.5zM352 1133q71 2 121.5 49t49.5 120q-2 75 -54.5 120t-122.5 43q-71 -2 -120 -49t-48 -123
q2 -75 53 -118.5t121 -41.5z" />
    <glyph glyph-name="seven.sups" horiz-adv-x="640" 
d="M18 1905h631v-124l-430 -798h-197l424 763h-428v159z" />
    <glyph glyph-name="eight.sups" horiz-adv-x="729" 
d="M550 1492q63 -38 98 -98.5t35 -135.5q0 -122 -91 -204.5t-229 -82.5q-136 0 -227 83t-91 204q0 75 35 135.5t98 98.5q-78 62 -78 184q0 103 75 172t190 69q113 0 188 -69.5t75 -171.5q0 -122 -78 -184zM365 1779q-52 0 -85.5 -34t-33.5 -85q0 -50 34 -84t85 -34
q50 0 83.5 34t33.5 84q0 51 -33.5 85t-83.5 34zM363 1120q65 0 108 45.5t43 111.5q0 65 -43 107.5t-108 42.5q-64 0 -106.5 -42.5t-42.5 -107.5q0 -66 42.5 -111.5t106.5 -45.5z" />
    <glyph glyph-name="nine.sups" horiz-adv-x="708" 
d="M695 1599q1 -105 -75 -206l-304 -410h-202l243 300q-16 -3 -35 -3q-117 -1 -209.5 91t-94.5 217q-2 146 98.5 235.5t238.5 91.5q88 1 164 -34.5t125.5 -109.5t50.5 -172zM361 1422q71 2 119.5 49t47.5 124q-1 74 -52 118t-121 42q-71 -2 -122 -49t-49 -120
q2 -76 54.5 -121t122.5 -43z" />
    <glyph glyph-name="uni0308.case" 
d="M-702 1536q-69 0 -118 48.5t-49 117.5q0 68 49 116t118 48q67 0 116 -48t49 -116q0 -69 -49 -117.5t-116 -48.5zM-271 1536q-69 0 -118 48.5t-49 117.5q0 68 49 116t118 48q67 0 116 -48t49 -116q0 -69 -49 -117.5t-116 -48.5z" />
    <glyph glyph-name="uni0307.case" 
d="M-271 1536q-69 0 -118 48.5t-49 117.5q0 68 49 116t118 48q67 0 116 -48t49 -116q0 -69 -49 -117.5t-116 -48.5z" />
    <glyph glyph-name="gravecomb.case" 
d="M-210 1580l-226 267l141 101l263 -368h-178z" />
    <glyph glyph-name="acutecomb.case" 
d="M-455 1580l262 368l142 -101l-227 -267h-177z" />
    <glyph glyph-name="uni030B.case" 
d="M-832 1580l262 368l142 -101l-227 -267h-177zM-455 1580l263 368l141 -101l-226 -267h-178z" />
    <glyph glyph-name="uni0302.case" 
d="M-492 1580h-177l227 299h173l227 -299h-177l-137 166z" />
    <glyph glyph-name="uni030C.case" 
d="M-445 1580l-227 299h177l137 -167l136 167h178l-227 -299h-174z" />
    <glyph glyph-name="uni0306.case" 
d="M-457 1580q-364 0 -364 295h166q0 -81 52.5 -121t145.5 -40q95 0 147.5 39.5t52.5 121.5h166q0 -295 -366 -295z" />
    <glyph glyph-name="uni030A.case" 
d="M-329 1580q-100 0 -170.5 70.5t-70.5 169.5q0 98 70.5 167.5t170.5 69.5q97 0 167 -69.5t70 -167.5q0 -99 -69.5 -169.5t-167.5 -70.5zM-329 1701q50 0 84 33.5t34 85.5q0 49 -34.5 84.5t-83.5 35.5t-82.5 -35.5t-33.5 -84.5q0 -53 33 -86t83 -33z" />
    <glyph glyph-name="tildecomb.case" 
d="M-333 1590q-63 0 -101 21.5t-69 58.5q-3 3 -12 14.5t-12 15.5t-11 12.5t-13 11.5t-13 8t-16.5 6.5t-17.5 1.5q-41 0 -62.5 -38t-21.5 -99h-151q0 118 62 192.5t168 74.5q103 0 168 -73q6 -7 22.5 -26t24.5 -26.5t23.5 -15.5t31.5 -8q78 0 78 135h153q0 -117 -60.5 -191.5
t-170.5 -74.5z" />
    <glyph glyph-name="uni0304.case" 
d="M-809 1580v170h664v-170h-664z" />
    <glyph glyph-name="hookabovecomb.case" 
d="M-348 1536v135q111 19 111 97q0 30 -17.5 49t-51.5 19q-47 0 -86 -38l-67 96q68 58 169 58q92 0 144 -48t52 -128q0 -118 -126 -157v-83h-128z" />
    <glyph glyph-name="uni0312.case" 
d="M-293 1908h206l-125 -328h-296z" />
    <glyph glyph-name="uni0338.case" 
d="M-1205 -18l1109 1593l117 -70l-1109 -1592z" />
    <glyph glyph-name="uni03060301" 
d="M-539 1677l262 368l142 -100l-227 -268h-177zM-450 1185q-166 0 -265 90.5t-99 260.5h180q0 -97 48 -156.5t136 -59.5q89 0 137 59t48 157h181q0 -170 -99.5 -260.5t-266.5 -90.5z" />
    <glyph glyph-name="uni03060300" 
d="M-539 1677l-226 268l141 100l263 -368h-178zM-450 1185q-166 0 -265 90.5t-99 260.5h180q0 -97 48 -156.5t136 -59.5q89 0 137 59t48 157h181q0 -170 -99.5 -260.5t-266.5 -90.5z" />
    <glyph glyph-name="uni03060309" 
d="M-510 1617v135q111 21 111 97q0 31 -17.5 50t-51.5 19q-47 0 -86 -39l-67 97q69 57 169 57q92 0 144 -48t52 -127q0 -118 -126 -157v-84h-128zM-450 1185q-166 0 -265 90.5t-99 260.5h180q0 -97 48 -156.5t136 -59.5q89 0 137 59t48 157h181q0 -170 -99.5 -260.5
t-266.5 -90.5z" />
    <glyph glyph-name="uni03060303" 
d="M-317 1670q-111 0 -176 102q-25 39 -57 39q-34 0 -52 -35t-18 -93h-137q0 116 54.5 189t147.5 73q112 0 175 -103q24 -38 60 -38q67 0 67 128h138q0 -115 -53.5 -188.5t-148.5 -73.5zM-450 1185q-166 0 -265 90.5t-99 260.5h180q0 -97 48 -156.5t136 -59.5q89 0 137 59
t48 157h181q0 -170 -99.5 -260.5t-266.5 -90.5z" />
    <glyph glyph-name="uni03020301" 
d="M-445 1677l262 368l142 -100l-227 -268h-177zM-492 1237h-177l227 299h173l227 -299h-177l-137 166z" />
    <glyph glyph-name="uni03020300" 
d="M-445 1677l-226 268l141 100l263 -368h-178zM-492 1237h-177l227 299h173l227 -299h-177l-137 166z" />
    <glyph glyph-name="uni03020309" 
d="M-416 1617v135q111 21 111 97q0 31 -17.5 50t-51.5 19q-47 0 -86 -39l-67 97q69 57 169 57q92 0 144 -48t52 -127q0 -118 -126 -157v-84h-128zM-492 1237h-177l227 299h173l227 -299h-177l-137 166z" />
    <glyph glyph-name="uni03020303" 
d="M-223 1670q-111 0 -176 102q-25 39 -57 39q-34 0 -52 -35t-18 -93h-137q0 116 54.5 189t147.5 73q112 0 175 -103q24 -38 60 -38q67 0 67 128h138q0 -115 -53.5 -188.5t-148.5 -73.5zM-492 1237h-177l227 299h173l227 -299h-177l-137 166z" />
    <glyph glyph-name="uni03060301.case" 
d="M-544 1946l262 368l142 -101l-227 -267h-177zM-457 1580q-364 0 -364 295h166q0 -81 52.5 -121t145.5 -40q95 0 147.5 39.5t52.5 121.5h166q0 -295 -366 -295z" />
    <glyph glyph-name="uni03060300.case" 
d="M-544 1946l-226 267l141 101l263 -368h-178zM-457 1580q-364 0 -364 295h166q0 -81 52.5 -121t145.5 -40q95 0 147.5 39.5t52.5 121.5h166q0 -295 -366 -295z" />
    <glyph glyph-name="uni03060309.case" 
d="M-515 1902v135q111 19 111 97q0 30 -17.5 49t-51.5 19q-47 0 -86 -38l-67 96q68 58 169 58q92 0 144 -48t52 -128q0 -118 -126 -157v-83h-128zM-457 1580q-364 0 -364 295h166q0 -81 52.5 -121t145.5 -40q95 0 147.5 39.5t52.5 121.5h166q0 -295 -366 -295z" />
    <glyph glyph-name="uni03060303.case" 
d="M-306 1956q-63 0 -101 21.5t-69 58.5q-3 3 -12 14.5t-12 15.5t-11 12.5t-13 11.5t-13 8t-16.5 6.5t-17.5 1.5q-41 0 -62.5 -38t-21.5 -99h-151q0 118 62 192.5t168 74.5q103 0 168 -73q6 -7 22.5 -26t24.5 -26.5t23.5 -15.5t31.5 -8q78 0 78 135h153q0 -117 -60.5 -191.5
t-170.5 -74.5zM-457 1580q-364 0 -364 295h166q0 -81 52.5 -121t145.5 -40q95 0 147.5 39.5t52.5 121.5h166q0 -295 -366 -295z" />
    <glyph glyph-name="uni03020301.case" 
d="M-445 1970l262 368l142 -101l-227 -267h-177zM-492 1580h-177l227 299h173l227 -299h-177l-137 166z" />
    <glyph glyph-name="uni03020300.case" 
d="M-445 1970l-226 267l141 101l263 -368h-178zM-492 1580h-177l227 299h173l227 -299h-177l-137 166z" />
    <glyph glyph-name="uni03020309.case" 
d="M-416 1926v135q111 19 111 97q0 30 -17.5 49t-51.5 19q-47 0 -86 -38l-67 96q68 58 169 58q92 0 144 -48t52 -128q0 -118 -126 -157v-83h-128zM-492 1580h-177l227 299h173l227 -299h-177l-137 166z" />
    <glyph glyph-name="uni03020303.case" 
d="M-207 1980q-63 0 -101 21.5t-69 58.5q-3 3 -12 14.5t-12 15.5t-11 12.5t-13 11.5t-13 8t-16.5 6.5t-17.5 1.5q-41 0 -62.5 -38t-21.5 -99h-151q0 118 62 192.5t168 74.5q103 0 168 -73q6 -7 22.5 -26t24.5 -26.5t23.5 -15.5t31.5 -8q78 0 78 135h153q0 -117 -60.5 -191.5
t-170.5 -74.5zM-492 1580h-177l227 299h173l227 -299h-177l-137 166z" />
    </font>
</defs>
</svg>
